Luiz Bonfa - O Violao e o Samba (2008) [APE|Lossless]<Brazilian Jazz, Bossa Nova, Samba>

 

Создавать темы 30-Июл-2014 04:50

-Luiz Bonfa - O Violao e o Samba (2008)- Год: 2008
Жанр: Brazilian Jazz, Bossa Nova, Samba
Продолжительность: 00:28:11
Издатель (лейбл): EMI Music Brasil Ltd
Номер по каталогу: 5099921674020
Кодек: APE
Битрейт: Lossless
Тип рипа: image+.cue
Треклист:
01. Inquietacao
02. Nossos Momentos
03. Meu Nome e Ninguem
04. Lamento No Morro
05. Pastorinhas
06. Voce Chegou Sorrindo
07. Murmurio
08. Liberdale Demais
09. Amor Em Brasilia
10. Saudade Da Bahia
11. Copacabana
12. Amor de Solidao

Отчёт ЕАС&#58;

Exact Audio Copy V0.99 prebeta 4 from 23. January 2008
EAC extraction logfile from 1. December 2009, 18:52
Luiz Bonfa / O Violao e o Samba
Used drive  : HL-DT-STRW/DVD GCC-4242N   Adapter: 1  ID: 0
Read mode               : Secure
Utilize accurate stream : Yes
Defeat audio cache      : Yes
Make use of C2 pointers : No
Read offset correction                      : 102
Overread into Lead-In and Lead-Out          : No
Fill up missing offset samples with silence : Yes
Delete leading and trailing silent blocks   : No
Null samples used in CRC calculations       : Yes
Used interface                              : Native Win32 interface for Win NT & 2000
Used output format : Internal WAV Routines
Sample format      : 44.100 Hz; 16 Bit; Stereo
TOC of the extracted CD
     Track |   Start  |  Length  | Start sector | End sector
    ---------------------------------------------------------
        1  |  0:00.00 |  2:27.42 |         0    |    11066
        2  |  2:27.42 |  2:35.25 |     11067    |    22716
        3  |  5:02.67 |  1:45.03 |     22717    |    30594
        4  |  6:47.70 |  2:10.25 |     30595    |    40369
        5  |  8:58.20 |  2:40.32 |     40370    |    52401
        6  | 11:38.52 |  2:26.38 |     52402    |    63389
        7  | 14:05.15 |  2:31.52 |     63390    |    74766
        8  | 16:36.67 |  1:56.45 |     74767    |    83511
        9  | 18:33.37 |  2:19.15 |     83512    |    93951
       10  | 20:52.52 |  2:30.60 |     93952    |   105261
       11  | 23:23.37 |  2:03.73 |    105262    |   114559
       12  | 25:27.35 |  2:43.57 |    114560    |   126841
Range status and errors
Selected range
     Filename C:\_\EAC_Out\Out\Luiz Bonfa - O Violao e o Samba\Luiz Bonfa - O Violao e o Samba.wav
     Peak level 100.0 %
     Range quality 99.9 %
     Copy CRC 13246F1E
     Copy OK
No errors occurred
AccurateRip summary
Track  1  accurately ripped (confidence 1)  [58F0CA35]
Track  2  accurately ripped (confidence 1)  [05BAF22B]
Track  3  accurately ripped (confidence 1)  [C8CEDB40]
Track  4  accurately ripped (confidence 1)  [0592E603]
Track  5  accurately ripped (confidence 1)  [BF37339C]
Track  6  accurately ripped (confidence 1)  [28ADCC7B]
Track  7  accurately ripped (confidence 1)  [949CBBA7]
Track  8  accurately ripped (confidence 1)  [4E4FB57B]
Track  9  accurately ripped (confidence 1)  [C30AF81D]
Track 10  accurately ripped (confidence 1)  [B40BD247]
Track 11  accurately ripped (confidence 1)  [4A96BC41]
Track 12  accurately ripped (confidence 1)  [DD075934]
All tracks accurately ripped
End of status report

Отчёт auCDtect Task manager&#58;

-----------------------
DON'T MODIFY THIS FILE
-----------------------
PERFORMER: auCDtect Task Manager, ver. 1.6.0 RC1 build 1.6.0.1
Copyright (c) 2008-2010 y-soft. All rights reserved
http://y-soft.org
ANALYZER: auCDtect: CD records authenticity detector, version 0.8.2
Copyright (c) 2004 Oleg Berngardt. All rights reserved.
Copyright (c) 2004 Alexander Djourik. All rights reserved.
FILE: Luiz Bonfa - O Violao e o Samba.ape
  Size: 187182400 Hash: 17B9687FBDAC6FB12013B537C345AD31 Accuracy: -m0
  Conclusion: CDDA 100%
  Signature: 7E264FACEDA2A24127DB33B5FCF38671149B2715
Время раздачи: по возможности
Яндекс.Метрика
Рейтинг@Mail.ru