(Pop/Rock) [CD] Kim Wilde - The Remix Collection - 1993, FLAC (image+.cue), lossless

 

Создавать темы 29-Июл-2014 20:19

Kim Wilde - The Remix Collection- Жанр: Pop/Rock
Носитель: CD
Страна-производитель диска: Japan
Год издания: 1993
Издатель (лейбл): MCA Records
Номер по каталогу: MVCM-20043
Страна: UK
Аудиокодек: FLAC (*.flac)
Тип рипа: image+.cue
Битрейт аудио: lossless
Продолжительность: 68:33
Источник (релизер): elsazh (собственный рип)
Наличие сканов в содержимом раздачи: да
Треклист:
01. If I Can't Have You (John Robinson Mix) 1993 (04:36)
02. Kids In America (The Maranza Mix) 1993 (05:06)
03. The Second Time (U.S. Remix) 1984 (05:23)
04. Rage To Love (Extended Version) 1984 (05:59)
05. You Keep Me Hangin' On (Extended W.C.H. Mix) 1986 (09:03)
06. Another Step (Closer To You) (Extended Mix) 1987 (05:51)
07. You Came (The Close Remix) 1988 (06:41)
08. Never Trust A Stranger (Sanjazz Mix) 1988 (05:44)
09. Four Letter Word (Late Night Mix) 1988 (03:55)
10. Love Is Holy (Ambient Mix) 1992 (04:44)
11. If I Can't Have You (Extended Version) 1993 (06:29)
12. In My Life (West End 12'' Remix) 1993 (04:57)

Лог создания рипа

Exact Audio Copy V1.0 beta 3 from 29. August 2011
EAC extraction logfile from 23. July 2014, 18:50
Kim Wilde / The Remix Collection (Japan Promo Sample, MVCM-20043)
Used drive  : TEAC    DV-W524GSB   Adapter: 2  ID: 1
Read mode               : Secure
Utilize accurate stream : Yes
Defeat audio cache      : Yes
Make use of C2 pointers : No
Read offset correction                      : 6
Overread into Lead-In and Lead-Out          : No
Fill up missing offset samples with silence : Yes
Delete leading and trailing silent blocks   : No
Null samples used in CRC calculations       : Yes
Used interface                              : Native Win32 interface for Win NT & 2000
Used output format              : User Defined Encoder
Selected bitrate                : 320 kBit/s
Quality                         : High
Add ID3 tag                     : No
Command line compressor         : C:\Program Files\FLAC\flac.exe
Additional command line options : -V -8 -T "Date=%year%" -T "Genre=%genre%" %source%
TOC of the extracted CD
     Track |   Start  |  Length  | Start sector | End sector
    ---------------------------------------------------------
        1  |  0:00.37 |  4:36.45 |        37    |    20781
        2  |  4:37.07 |  5:06.60 |     20782    |    43791
        3  |  9:43.67 |  5:23.25 |     43792    |    68041
        4  | 15:07.17 |  5:59.05 |     68042    |    94971
        5  | 21:06.22 |  9:03.60 |     94972    |   135756
        6  | 30:10.07 |  5:51.40 |    135757    |   162121
        7  | 36:01.47 |  6:41.68 |    162122    |   192264
        8  | 42:43.40 |  5:44.27 |    192265    |   218091
        9  | 48:27.67 |  3:55.08 |    218092    |   235724
       10  | 52:23.00 |  4:44.00 |    235725    |   257024
       11  | 57:07.00 |  6:29.72 |    257025    |   286271
       12  | 63:36.72 |  4:57.13 |    286272    |   308559
Range status and errors
Selected range
     Filename C:\Kim Wilde - The Remix Collection (Japan Promo Sample, MVCM-20043) (1993)\Kim Wilde - The Remix Collection (Japan Promo Sample, MVCM-20043).wav
     Peak level 100.0 %
     Extraction speed 6.6 X
     Range quality 99.9 %
     Test CRC A2EB172B
     Copy CRC A2EB172B
     Copy OK
No errors occurred
AccurateRip summary
Track  1  accurately ripped (confidence 3)  [1756421E]  (AR v1)
Track  2  accurately ripped (confidence 3)  [8606BDD9]  (AR v1)
Track  3  accurately ripped (confidence 3)  [44CD97D1]  (AR v1)
Track  4  accurately ripped (confidence 3)  [065EF496]  (AR v1)
Track  5  accurately ripped (confidence 4)  [22C0CE84]  (AR v1)
Track  6  accurately ripped (confidence 3)  [F2094C7D]  (AR v1)
Track  7  accurately ripped (confidence 3)  [C02EE851]  (AR v1)
Track  8  accurately ripped (confidence 4)  [0DBEBF63]  (AR v1)
Track  9  accurately ripped (confidence 4)  [C1531EAF]  (AR v1)
Track 10  accurately ripped (confidence 3)  [F450E957]  (AR v1)
Track 11  accurately ripped (confidence 3)  [0B11C789]  (AR v1)
Track 12  accurately ripped (confidence 2)  [C1B8016C]  (AR v1)
All tracks accurately ripped
End of status report
==== Log checksum 5DC3A6E74D515C5E3A3CA8DC80F40A0EC3DF47E0E04EE34B7E3F90B3E5260212 ====
Яндекс.Метрика
Рейтинг@Mail.ru