Mark Murphy - 2 альбома (1981, 1989) [FLAC|Lossless]<Jazz, Vocal>

 

Создавать темы 25-Июл-2014 20:32

-Mark Murphy - 2 альбома (1981, 1989)- Год: 1981, 1989
Жанр: Jazz, Vocal
Источник: Web
Издатель: Muse Records | Страна изготовитель: USA
Продолжительность: 01:27:07 | Наличие сканов в содержимом раздачи: Да, полные
Кодек: FLAC | Битрейт: Lossless| Тип рипа: image+.cue-Описание:
14 марта 1932 года родился номинант шести "Grammy", американский джазовый певец - Mark Murphy. Его карьера, как началась 60 лет назад, так продолжается до сих пор, а главное, что и заканчивать не собирается.
Родился Марк Мёрфи в Сайракьюз, штат Нью-Йорк, в музыкальном семействе. Ребёнком он начал играть на фортепиано, в колледже специализировался на вокале и театре. Несколько телевизионных появлений в те годы дали ему возможность заключить контракт с фирмой "Декка" и в `56 году дебютировать со своим сольным диском, под названием "Meet Mark Murphy”.
В 60-е годы Мёрфи начали признавать в Европе. Наряду со множеством американских экспатриантов, он провёл много лет в Европе и делал записи с известным оркестром «Clarke-Boland Big Band».
В начале 70-х Мёрфи вновь вернулся в Америку, где стал главным именем в вокальном джазе.
Марк Мёрфи продолжает выступать на фестивалях, концертах в лучших джазовых клубах, телевизионных программах по всей территории США, Европы, Австралии и Японии и является одним из наиболее важных джазовых вокалистов нашего времени.--

1981. Bop For Kerouac - with Richie Cole {MCD 5253}

Трeклист:
01. Be-Bop Lives (Boplicity) [06:39]
02. Goodbye Pork Pie Hat [04:53]
03. Parker's Mood [04:33]
04. You better Know [03:26]
05. You've Proven Your Point (Bongo Beep) [03:47]
06. The Bad and The Beautiful [03:54]
07. Down St.Thomas Way [05:06]
08. Balad Of The Sad Young Men [07:37]
Прoдолжительность: 00:39:55

Отчёт ЕАС&#58;

Exact Audio Copy V0.99 prebeta 5 from 4. May 2009
EAC extraction logfile from 8. February 2011, 20:03
Mark Murphy / Bop For Kerouac
Used drive  : TSSTcorpDVD+-RW TS-U633A   Adapter: 0  ID: 1
Read mode               : Secure
Utilize accurate stream : Yes
Defeat audio cache      : Yes
Make use of C2 pointers : No
Read offset correction                      : 6
Overread into Lead-In and Lead-Out          : No
Fill up missing offset samples with silence : Yes
Delete leading and trailing silent blocks   : No
Null samples used in CRC calculations       : Yes
Used interface                              : Native Win32 interface for Win NT & 2000
Used output format : Internal WAV Routines
Sample format      : 44.100 Hz; 16 Bit; Stereo
TOC of the extracted CD
     Track |   Start  |  Length  | Start sector | End sector
    ---------------------------------------------------------
        1  |  0:00.33 |  6:39.05 |        33    |    29962
        2  |  6:39.38 |  4:52.60 |     29963    |    51922
        3  | 11:32.23 |  4:32.55 |     51923    |    72377
        4  | 16:05.03 |  3:26.15 |     72378    |    87842
        5  | 19:31.18 |  3:46.45 |     87843    |   104837
        6  | 23:17.63 |  3:54.00 |    104838    |   122387
        7  | 27:11.63 |  5:06.30 |    122388    |   145367
        8  | 32:18.18 |  7:37.17 |    145368    |   179659
Range status and errors
Selected range
     Filename C:\_Arc\EAC_Out\Mark Murphy - Bop For Kerouac\Mark Murphy - Bop For Kerouac.wav
     Peak level 79.7 %
     Range quality 100.0 %
     Copy CRC A2008F53
     Copy OK
No errors occurred
AccurateRip summary
Track  1  accurately ripped (confidence 3)  [9BA19A92]
Track  2  accurately ripped (confidence 3)  [C97F9A89]
Track  3  accurately ripped (confidence 3)  [FDAE07A5]
Track  4  accurately ripped (confidence 2)  [C2337DC6]
Track  5  accurately ripped (confidence 3)  [AFE50C12]
Track  6  accurately ripped (confidence 3)  [BAF81D0F]
Track  7  accurately ripped (confidence 3)  [E743A1C7]
Track  8  accurately ripped (confidence 2)  [7A6476A8]
All tracks accurately ripped
End of status report

Отчёт auCDtect Task manager&#58;

-----------------------
DON'T MODIFY THIS FILE
-----------------------
PERFORMER: auCDtect Task Manager, ver. 1.6.0 RC1 build 1.6.0.1
Copyright (c) 2008-2010 y-soft. All rights reserved
http://y-soft.org
ANALYZER: auCDtect: CD records authenticity detector, version 0.8.2
Copyright (c) 2004 Oleg Berngardt. All rights reserved.
Copyright (c) 2004 Alexander Djourik. All rights reserved.
FILE: Mark Murphy - Bop For Kerouac.flac
  Size: 238544074 Hash: 907E102EEC16434549C47B4153D85CF3 Accuracy: -m0
  Conclusion: CDDA 100%
  Signature: 258C55BD4E3C3FD70DF2BF31226834DFB581A66B

Содержание индексной карты (.CUE&#41;&#58;

REM GENRE Jazz
REM DATE 1979
REM DISCID 6D095B08
REM COMMENT "ExactAudioCopy v0.99pb5"
PERFORMER "Mark Murphy"
TITLE "Bop For Kerouac"
FILE "Mark Murphy - Bop For Kerouac.flac" WAVE
  TRACK 01 AUDIO
    TITLE "Be-Bop Lives (Boplicity)"
    PERFORMER "Mark Murphy"
    FLAGS PRE
    INDEX 00 00:00:00
    INDEX 01 00:00:33
  TRACK 02 AUDIO
    TITLE "Goodbye Pork Pie Hat"
    PERFORMER "Mark Murphy"
    FLAGS PRE
    INDEX 00 06:37:38
    INDEX 01 06:39:38
  TRACK 03 AUDIO
    TITLE "Parker's Mood"
    PERFORMER "Mark Murphy"
    FLAGS PRE
    INDEX 00 11:30:08
    INDEX 01 11:32:23
  TRACK 04 AUDIO
    TITLE "You better Know"
    PERFORMER "Mark Murphy"
    FLAGS PRE
    INDEX 00 16:02:44
    INDEX 01 16:05:03
  TRACK 05 AUDIO
    TITLE "You've Proven Your Point (Bongo Beep)"
    PERFORMER "Mark Murphy"
    FLAGS PRE
    INDEX 00 19:28:53
    INDEX 01 19:31:18
  TRACK 06 AUDIO
    TITLE "The Bad and The Beautiful"
    PERFORMER "Mark Murphy"
    FLAGS PRE
    INDEX 00 23:13:38
    INDEX 01 23:17:63
  TRACK 07 AUDIO
    TITLE "Down St.Thomas Way"
    PERFORMER "Mark Murphy"
    FLAGS PRE
    INDEX 00 27:08:00
    INDEX 01 27:11:63
  TRACK 08 AUDIO
    TITLE "Balad Of The Sad Young Men"
    PERFORMER "Mark Murphy"
    FLAGS PRE
    INDEX 00 32:13:48
    INDEX 01 32:18:18
--

1989. Kerouac, Then And Now {MCD 5359}

Трeклист:
01. Blood Count [05:00]
02. Medley: Eddie Jefferson/Take The A Train [08:24]
03. Ask Me Now [03:42]
04. San Francisco [02:15]
05. Lazy Afternoon [04:59]
06. If You Could See Me Now [06:51]
07. November In The Snow [05:04]
08. Lord Buckley [03:17]
09. Medley: The Night We Called It A Day/There's No You [07:40]
Прoдолжительность: 00:47:12

Отчёт ЕАС&#58;

Exact Audio Copy V1.0 beta 1 from 15. November 2010
EAC extraction logfile from 5. February 2012, 18:32
Mark Murphy / Kerouac, Then And Now
Used drive  : TSSTcorpDVD+-RW TS-L532B   Adapter: 1  ID: 0
Read mode               : Secure
Utilize accurate stream : Yes
Defeat audio cache      : Yes
Make use of C2 pointers : No
Read offset correction                      : 704
Overread into Lead-In and Lead-Out          : No
Fill up missing offset samples with silence : Yes
Delete leading and trailing silent blocks   : No
Null samples used in CRC calculations       : Yes
Used interface                              : Native Win32 interface for Win NT & 2000
Used output format : Internal WAV Routines
Sample format      : 44.100 Hz; 16 Bit; Stereo
TOC of the extracted CD
     Track |   Start  |  Length  | Start sector | End sector
    ---------------------------------------------------------
        1  |  0:00.00 |  4:59.57 |         0    |    22481
        2  |  4:59.57 |  8:23.50 |     22482    |    60256
        3  | 13:23.32 |  3:42.00 |     60257    |    76906
        4  | 17:05.32 |  2:15.23 |     76907    |    87054
        5  | 19:20.55 |  4:59.12 |     87055    |   109491
        6  | 24:19.67 |  6:50.45 |    109492    |   140286
        7  | 31:10.37 |  5:04.30 |    140287    |   163116
        8  | 36:14.67 |  3:16.68 |    163117    |   177884
        9  | 39:31.60 |  7:39.70 |    177885    |   212379
Range status and errors
Selected range
     Filename C:\Documents and Settings\VB\My Documents\BARIN99\Mark Murphy - Kerouac, Then And Now\Mark Murphy - Kerouac, Then And Now.wav
     Peak level 81.5 %
     Extraction speed 0.4 X
     Range quality 99.9 %
     Copy CRC 1B2EFDAB
     Copy OK
No errors occurred
AccurateRip summary
Track  1  not present in database
Track  2  not present in database
Track  3  not present in database
Track  4  not present in database
Track  5  not present in database
Track  6  not present in database
Track  7  not present in database
Track  8  not present in database
Track  9  not present in database
None of the tracks are present in the AccurateRip database
End of status report

Отчёт auCDtect Task manager&#58;

-----------------------
DON'T MODIFY THIS FILE
-----------------------
PERFORMER: auCDtect Task Manager, ver. 1.6.0 RC1 build 1.6.0.1
Copyright (c) 2008-2010 y-soft. All rights reserved
http://y-soft.org
ANALYZER: auCDtect: CD records authenticity detector, version 0.8.2
Copyright (c) 2004 Oleg Berngardt. All rights reserved.
Copyright (c) 2004 Alexander Djourik. All rights reserved.
FILE: Mark Murphy - Kerouac, Then And Now.flac
  Size: 257195597 Hash: 4FA4F26B4872442268F3BB80FF72E75B Accuracy: -m0
  Conclusion: CDDA 100%
  Signature: 3C037F4353418B687E61740BC698A8B95C648B44

Содержание индексной карты (.CUE&#41;&#58;

REM GENRE Jazz
REM DATE 1989
REM DISCID 640B0F09
REM COMMENT "ExactAudioCopy v1.0b1"
PERFORMER "Mark Murphy"
TITLE "Kerouac, Then And Now"
FILE "Mark Murphy - Kerouac, Then And Now.flac" WAVE
  TRACK 01 AUDIO
    TITLE "Blood Count"
    PERFORMER "Mark Murphy"
    INDEX 01 00:00:00
  TRACK 02 AUDIO
    TITLE "Medley: Eddie Jefferson/Take The A Train"
    PERFORMER "Mark Murphy"
    INDEX 00 04:55:15
    INDEX 01 04:59:57
  TRACK 03 AUDIO
    TITLE "Ask Me Now"
    PERFORMER "Mark Murphy"
    INDEX 00 13:20:55
    INDEX 01 13:23:32
  TRACK 04 AUDIO
    TITLE "San Francisco"
    PERFORMER "Mark Murphy"
    INDEX 00 17:02:50
    INDEX 01 17:05:32
  TRACK 05 AUDIO
    TITLE "Lazy Afternoon"
    PERFORMER "Mark Murphy"
    INDEX 00 19:16:55
    INDEX 01 19:20:55
  TRACK 06 AUDIO
    TITLE "If You Could See Me Now"
    PERFORMER "Mark Murphy"
    INDEX 00 24:15:10
    INDEX 01 24:19:67
  TRACK 07 AUDIO
    TITLE "November In The Snow"
    PERFORMER "Mark Murphy"
    INDEX 00 31:07:05
    INDEX 01 31:10:37
  TRACK 08 AUDIO
    TITLE "Lord Buckley"
    PERFORMER "Mark Murphy"
    INDEX 00 36:11:55
    INDEX 01 36:14:67
  TRACK 09 AUDIO
    TITLE "Medley: The Night We Called It A Day/There's No You"
    PERFORMER "Mark Murphy"
    INDEX 00 39:28:40
    INDEX 01 39:31:60
--
Яндекс.Метрика
Рейтинг@Mail.ru