(Heavy Metal) Judas Priest - Redeemer Of Souls (Deluxe Edition) (2CD) - 2014, FLAC (image + .cue), lossless

 

Создавать темы 12-Июл-2014 11:28

-Judas Priest - Redeemer Of Souls (Deluxe Edition) (2CD)
Жанр: Heavy Metal
Страна-производитель диска: EU
Год издания: 2014
Издатель (лейбл): Sony Music
Номер по каталогу: 88843072432
Страна: UK
Аудиокодек: FLAC (*.flac)
Тип рипа: image+.cue
Битрейт аудио: lossless
Продолжительность: 01:23:46
Наличие сканов : да
- -

CD 1 | 01:02:03

01. Dragonaut (04:26)
02. Redeemer Of Souls (03:58)
03. Halls Of Valhalla (06:04)
04. Sword Of Damocles (04:54)
05. March Of The Damned (03:56)
06. Down In Flames (03:55)
07. Hell & Back (04:46)
08. Cold Blooded (05:25)
09. Metalizer (04:37)
10. Crossfire (03:51)
11. Secrets Of The Dead (05:41)
12. Battle Cry (05:18)
13. Beginning Of The End (05:07)

лог создания рипа

Exact Audio Copy V1.0 beta 3 from 29. August 2011
EAC extraction logfile from 11. July 2014, 14:57
Judas Priest / Redeemer Of Souls
Used drive  : HL-DT-STDVDRAM GU40N   Adapter: 0  ID: 1
Read mode               : Secure
Utilize accurate stream : Yes
Defeat audio cache      : Yes
Make use of C2 pointers : No
Read offset correction                      : 103
Overread into Lead-In and Lead-Out          : No
Fill up missing offset samples with silence : Yes
Delete leading and trailing silent blocks   : No
Null samples used in CRC calculations       : Yes
Used interface                              : Installed external ASPI interface
Used output format              : User Defined Encoder
Selected bitrate                : 128 kBit/s
Quality                         : High
Add ID3 tag                     : No
Command line compressor         : C:\Program Files (x86)\AudioConverter\AudioConverter.exe
Additional command line options :  -V -8 -T "Date=%year%" -T "Genre=%genre%" %source%
TOC of the extracted CD
     Track |   Start  |  Length  | Start sector | End sector
    ---------------------------------------------------------
        1  |  0:00.00 |  4:26.46 |         0    |    19995
        2  |  4:26.46 |  3:58.60 |     19996    |    37905
        3  |  8:25.31 |  6:04.06 |     37906    |    65211
        4  | 14:29.37 |  4:54.56 |     65212    |    87317
        5  | 19:24.18 |  3:56.32 |     87318    |   105049
        6  | 23:20.50 |  3:55.31 |    105050    |   122705
        7  | 27:16.06 |  4:46.05 |    122706    |   144160
        8  | 32:02.11 |  5:25.04 |    144161    |   168539
        9  | 37:27.15 |  4:37.64 |    168540    |   189378
       10  | 42:05.04 |  3:51.03 |    189379    |   206706
       11  | 45:56.07 |  5:41.06 |    206707    |   232287
       12  | 51:37.13 |  5:18.21 |    232288    |   256158
       13  | 56:55.34 |  5:07.44 |    256159    |   279227
Range status and errors
Selected range
     Filename C:\Users\workutagin\Desktop\Neuer Ordner\Judas Priest - Redeemer Of Souls.wav
     Peak level 100.0 %
     Extraction speed 2.0 X
     Range quality 99.9 %
     Test CRC A5FC469B
     Copy CRC A5FC469B
     Copy OK
No errors occurred
AccurateRip summary
Track  1  not present in database
Track  2  not present in database
Track  3  not present in database
Track  4  not present in database
Track  5  not present in database
Track  6  not present in database
Track  7  not present in database
Track  8  not present in database
Track  9  not present in database
Track 10  not present in database
Track 11  not present in database
Track 12  not present in database
Track 13  not present in database
None of the tracks are present in the AccurateRip database
End of status report

содержание индексной карты *cue

REM GENRE Heavy Metal
REM DATE 2014
REM DISCID C00E8B0D
REM COMMENT ExactAudioCopy v1.0b3
PERFORMER "Judas Priest"
TITLE "Redeemer Of Souls"
FILE "Judas Priest - Redeemer Of Souls.flac" WAVE
  TRACK 01 AUDIO
    TITLE "Dragonaut"
    INDEX 01 00:00:00
  TRACK 02 AUDIO
    TITLE "Redeemer Of Souls"
    INDEX 01 04:26:46
  TRACK 03 AUDIO
    TITLE "Halls Of Valhalla"
    INDEX 01 08:25:31
  TRACK 04 AUDIO
    TITLE "Sword Of Damocles"
    INDEX 01 14:29:37
  TRACK 05 AUDIO
    TITLE "March Of The Damned"
    INDEX 01 19:24:18
  TRACK 06 AUDIO
    TITLE "Down In Flames"
    INDEX 00 23:20:23
    INDEX 01 23:20:50
  TRACK 07 AUDIO
    TITLE "Hell & Back"
    INDEX 00 27:15:64
    INDEX 01 27:16:06
  TRACK 08 AUDIO
    TITLE "Cold Blooded"
    INDEX 00 32:02:03
    INDEX 01 32:02:11
  TRACK 09 AUDIO
    TITLE "Metalizer"
    INDEX 01 37:27:15
  TRACK 10 AUDIO
    TITLE "Crossfire"
    INDEX 00 42:04:61
    INDEX 01 42:05:04
  TRACK 11 AUDIO
    TITLE "Secrets Of The Dead"
    INDEX 00 45:55:45
    INDEX 01 45:56:07
  TRACK 12 AUDIO
    TITLE "Battle Cry"
    INDEX 01 51:37:13
  TRACK 13 AUDIO
    TITLE "Beginning Of The End"
    INDEX 00 56:54:53
    INDEX 01 56:55:34

CD 2 - Bonus CD | 00:21:43

01. Snakebite (03:14)
02. Tears Of Blood (04:19)
03. Creatures Of The Night (04:25)
04. Bring It On (03:18)
05. Never Forget (06:25)

лог создания рипа

Exact Audio Copy V1.0 beta 3 from 29. August 2011
EAC extraction logfile from 11. July 2014, 15:26
Judas Priest / Redeemer Of Souls - Bonus CD
Used drive  : HL-DT-STDVDRAM GU40N   Adapter: 0  ID: 1
Read mode               : Secure
Utilize accurate stream : Yes
Defeat audio cache      : Yes
Make use of C2 pointers : No
Read offset correction                      : 103
Overread into Lead-In and Lead-Out          : No
Fill up missing offset samples with silence : Yes
Delete leading and trailing silent blocks   : No
Null samples used in CRC calculations       : Yes
Used interface                              : Installed external ASPI interface
Used output format              : User Defined Encoder
Selected bitrate                : 128 kBit/s
Quality                         : High
Add ID3 tag                     : No
Command line compressor         : C:\Program Files (x86)\AudioConverter\AudioConverter.exe
Additional command line options :  -V -8 -T "Date=%year%" -T "Genre=%genre%" %source%
TOC of the extracted CD
     Track |   Start  |  Length  | Start sector | End sector
    ---------------------------------------------------------
        1  |  0:00.00 |  3:14.71 |         0    |    14620
        2  |  3:14.71 |  4:19.06 |     14621    |    34051
        3  |  7:34.02 |  4:25.39 |     34052    |    53965
        4  | 11:59.41 |  3:18.21 |     53966    |    68836
        5  | 15:17.62 |  6:25.32 |     68837    |    97743
Range status and errors
Selected range
     Filename C:\Users\workutagin\Desktop\Neuer Ordner\Judas Priest - Redeemer Of Souls - Bonus CD.wav
     Peak level 100.0 %
     Extraction speed 1.6 X
     Range quality 100.0 %
     Test CRC 4E5964E1
     Copy CRC 4E5964E1
     Copy OK
No errors occurred
AccurateRip summary
Track  1  not present in database
Track  2  not present in database
Track  3  not present in database
Track  4  not present in database
Track  5  not present in database
None of the tracks are present in the AccurateRip database
End of status report

содержание индексной карты *cue

REM GENRE Heavy Metal
REM DATE 2014
REM DISCID 3E051705
REM COMMENT ExactAudioCopy v1.0b3
PERFORMER "Judas Priest"
TITLE "Redeemer Of Souls - Bonus CD"
FILE "Judas Priest - Redeemer Of Souls - Bonus CD.flac" WAVE
  TRACK 01 AUDIO
    TITLE "Snakebite"
    INDEX 01 00:00:00
  TRACK 02 AUDIO
    TITLE "Tears Of Blood"
    INDEX 01 03:14:71
  TRACK 03 AUDIO
    TITLE "Creatures Of The Night"
    INDEX 00 07:32:54
    INDEX 01 07:34:02
  TRACK 04 AUDIO
    TITLE "Bring It On"
    INDEX 01 11:59:41
  TRACK 05 AUDIO
    TITLE "Never Forget"
    INDEX 00 15:15:64
    INDEX 01 15:17:62
Яндекс.Метрика
Рейтинг@Mail.ru