(Disco, Hi-NRG) The Flirts - 5 CD Albums , FLAC (image+.cue), lossless

 

Создавать темы 08-Июл-2014 10:05



Страна: USA
Жанр: Disco, Hi NRG
Аудиокодек: FLAC (*.flac) Тип рипа: image+.cue
Битрейт аудио: lossless Наличие сканов: Yes

-

Треклист:

1994 – 10 Cents A Dance (Hot Productions – HTCD 6608, "O" Records – HTCD 6608)
Продолжительность 00:30:55
01. Jukebox (Don't Put Another Dime) 3:42
02. Boy Crazy 3:10
03. On The Beach 3:02
04. Passion 5:00
05. We Just Want To Dance 2:41
06. Calling All Boys 4:34
07. Jungle Rock 3:02
08. I Only Want To Be With You 2:23
09. Surf's Up 3:07

Лог создания рипа

Exact Audio Copy V1.0 beta 1 from 15. November 2010
EAC extraction logfile from 3. March 2012, 11:55
Flirts / 10 cent a dance
Used drive  : MATSHITADVD-RAM UJ-840S   Adapter: 1  ID: 0
Read mode               : SecureUtilize accurate stream : YesDefeat audio cache      : YesMake use of C2 pointers : No
Read offset correction                      : 102Overread into Lead-In and Lead-Out          : NoFill up missing offset samples with silence : YesDelete leading and trailing silent blocks   : NoNull samples used in CRC calculations       : YesUsed interface                              : Native Win32 interface for Win NT & 2000
Used output format : Internal WAV RoutinesSample format      : 44.100 Hz; 16 Bit; Stereo
TOC of the extracted CD
Track |   Start  |  Length  | Start sector | End sector    ---------------------------------------------------------        1  |  0:00.00 |  3:43.27 |         0    |    16751        2  |  3:43.27 |  3:09.03 |     16752    |    30929        3  |  6:52.30 |  2:58.50 |     30930    |    44329        4  |  9:51.05 |  5:04.27 |     44330    |    67156        5  | 14:55.32 |  2:44.05 |     67157    |    79461        6  | 17:39.37 |  4:34.08 |     79462    |   100019        7  | 22:13.45 |  3:06.05 |    100020    |   113974        8  | 25:19.50 |  2:30.57 |    113975    |   125281        9  | 27:50.32 |  3:05.13 |    125282    |   139169
Range status and errors
Selected range
Filename C:\Documents and Settings\User\Desktop\f82\Flirts - 10 cent a dance.wav
Peak level 100.0 %     Extraction speed 0.1 X     Range quality 100.0 %     Copy CRC B6837006     Copy OK
No errors occurred
End of status report
-1994 – Born To Flirt (Hot Productions – HTCD 6646 , "O" Records – HTCD 6646)
Продолжительность 00:26:19
01. Danger 4:36
02. Teenage Werewolf (I Was A) 4:27
03. Big Boys Don't Cry 2:51
04. Love Reaction 2:40
05. Telephone (Pick Up The) 3:11
06. Dream Boy 3:34
07. Nice Girls Say No 2:18
08. Oriental Boy 2:25

Лог создания рипа

Exact Audio Copy V1.0 beta 1 from 15. November 2010
EAC extraction logfile from 3. March 2012, 9:30
Flirts / Born to flirt
Used drive  : MATSHITADVD-RAM UJ-840S   Adapter: 1  ID: 0
Read mode               : SecureUtilize accurate stream : YesDefeat audio cache      : YesMake use of C2 pointers : No
Read offset correction                      : 102Overread into Lead-In and Lead-Out          : NoFill up missing offset samples with silence : YesDelete leading and trailing silent blocks   : NoNull samples used in CRC calculations       : YesUsed interface                              : Native Win32 interface for Win NT & 2000
Used output format : Internal WAV RoutinesSample format      : 44.100 Hz; 16 Bit; Stereo
TOC of the extracted CD
Track |   Start  |  Length  | Start sector | End sector    ---------------------------------------------------------        1  |  0:00.32 |  4:39.23 |        32    |    20979        2  |  4:39.55 |  4:30.27 |     20980    |    41256        3  |  9:10.07 |  2:52.13 |     41257    |    54169        4  | 12:02.20 |  2:42.47 |     54170    |    66366        5  | 14:44.67 |  3:12.48 |     66367    |    80814        6  | 17:57.40 |  3:36.02 |     80815    |    97016        7  | 21:33.42 |  2:19.68 |     97017    |   107509        8  | 23:53.35 |  2:26.47 |    107510    |   118506
Range status and errors
Selected range
Filename C:\Documents and Settings\User\Desktop\f83\Flirts - Born to flirt.wav
Peak level 95.5 %     Extraction speed 0.1 X     Range quality 100.0 %     Copy CRC 5CC20A0F     Copy OK
No errors occurred
End of status report
-1994 – Made In America (Hot Productions – HTCD 6648, "O" Records – HTCD 6648)
Продолжительность 00:38:26
01. Helpless 7:42
02. He Looks A Lot Like You 3:40
03. Temptation 4:12
04. Time Is Right 3:34
05. Dancing Madly Backwards 3:13
06. This Time 4:17
07. Making Time 3:35
08. Physical Attraction 3:45
09. I Wanna Rock 4:07

Лог создания рипа

Exact Audio Copy V1.0 beta 1 from 15. November 2010
EAC extraction logfile from 3. March 2012, 10:18
Flirts / Made in America
Used drive  : MATSHITADVD-RAM UJ-840S   Adapter: 1  ID: 0
Read mode               : SecureUtilize accurate stream : YesDefeat audio cache      : YesMake use of C2 pointers : No
Read offset correction                      : 102Overread into Lead-In and Lead-Out          : NoFill up missing offset samples with silence : YesDelete leading and trailing silent blocks   : NoNull samples used in CRC calculations       : YesUsed interface                              : Native Win32 interface for Win NT & 2000
Used output format : Internal WAV RoutinesSample format      : 44.100 Hz; 16 Bit; Stereo
TOC of the extracted CD
Track |   Start  |  Length  | Start sector | End sector    ---------------------------------------------------------        1  |  0:00.32 |  7:46.58 |        32    |    35039        2  |  7:47.15 |  3:42.30 |     35040    |    51719        3  | 11:29.45 |  4:14.10 |     51720    |    70779        4  | 15:43.55 |  3:36.32 |     70780    |    87011        5  | 19:20.12 |  3:15.48 |     87012    |   101684        6  | 22:35.60 |  4:19.37 |    101685    |   121146        7  | 26:55.22 |  3:37.60 |    121147    |   137481        8  | 30:33.07 |  3:47.15 |    137482    |   154521        9  | 34:20.22 |  4:07.10 |    154522    |   173056
Range status and errors
Selected range
Filename C:\Documents and Settings\User\Desktop\f84\Flirts - Made in America.wav
Peak level 95.5 %     Extraction speed 0.2 X     Range quality 100.0 %     Copy CRC E7652F3B     Copy OK
No errors occurred
End of status report
-1994 – Blondes, Brunettes & Redheads (Unidisc – UBK-4034)
Продолжительность 00:49:53
01. You & Me 4:26
02. New Toy 5:17
03. Voulez Vous 3:07
04. Come To Me 4:02
05. I Wanna Wear Your Ring 3:43
06. Crazy Guy 3:47
07. Just Another Heartache 4:20
08. Island Boy 3:37
09. Opposites Attract 4:44
10. You & Me (12" Mix) 6:03
11. New Toy (12" Mix) 6:12

Лог создания рипа

Exact Audio Copy V1.0 beta 1 from 15. November 2010
EAC extraction logfile from 3. March 2012, 11:01
Flirts / Blondes,Brunettes & Redheads
Used drive  : MATSHITADVD-RAM UJ-840S   Adapter: 1  ID: 0
Read mode               : SecureUtilize accurate stream : YesDefeat audio cache      : YesMake use of C2 pointers : No
Read offset correction                      : 102Overread into Lead-In and Lead-Out          : NoFill up missing offset samples with silence : YesDelete leading and trailing silent blocks   : NoNull samples used in CRC calculations       : YesUsed interface                              : Native Win32 interface for Win NT & 2000
Used output format : Internal WAV RoutinesSample format      : 44.100 Hz; 16 Bit; Stereo
TOC of the extracted CD
Track |   Start  |  Length  | Start sector | End sector    ---------------------------------------------------------        1  |  0:00.00 |  4:29.00 |         0    |    20174        2  |  4:29.00 |  5:20.30 |     20175    |    44204        3  |  9:49.30 |  3:10.17 |     44205    |    58471        4  | 12:59.47 |  4:05.55 |     58472    |    76901        5  | 17:05.27 |  3:46.38 |     76902    |    93889        6  | 20:51.65 |  3:50.50 |     93890    |   111189        7  | 24:42.40 |  4:23.05 |    111190    |   130919        8  | 29:05.45 |  3:40.47 |    130920    |   147466        9  | 32:46.17 |  4:47.15 |    147467    |   169006       10  | 37:33.32 |  6:06.13 |    169007    |   196469       11  | 43:39.45 |  6:13.00 |    196470    |   224444
Range status and errors
Selected range
Filename C:\Documents and Settings\User\Desktop\f85\Flirts - Blondes,Brunettes & Redheads.wav
Peak level 100.0 %     Extraction speed 0.2 X     Range quality 100.0 %     Copy CRC B17A15AE     Copy OK
No errors occurred
End of status report
-1992 – Take A Chance On Me (Vono Disc – 112.010 ) Switzerland
Продолжительность 00:58:47
01. Put Your Body In Motion 5:14
02. Temptation 4:30
03. Take A Chance On Me 3:47
04. Gimme Your Lovin' 3:27
05. Too Hot To Handle 4:08
06. A Love So Right 4:25
07. So Untrue 3:57
08. Love And Desire 4:27
09. Boy Candy 3:13
10. Roller Coaster (To Your Heart) 3:48
11. Lover Boy 5:12
12. Ready To Go Steady 3:51
13. A Thing Called Love 4:31
14. Emergency 3:56

Лог создания рипа

Exact Audio Copy V1.0 beta 1 from 15. November 2010
EAC extraction logfile from 15. May 2012, 8:52
Flirts / Take chance on me
Used drive  : MATSHITADVD-RAM UJ-840S   Adapter: 1  ID: 0
Read mode               : SecureUtilize accurate stream : YesDefeat audio cache      : YesMake use of C2 pointers : No
Read offset correction                      : 102Overread into Lead-In and Lead-Out          : NoFill up missing offset samples with silence : YesDelete leading and trailing silent blocks   : NoNull samples used in CRC calculations       : YesUsed interface                              : Native Win32 interface for Win NT & 2000
Used output format : Internal WAV RoutinesSample format      : 44.100 Hz; 16 Bit; Stereo
TOC of the extracted CD
Track |   Start  |  Length  | Start sector | End sector    ---------------------------------------------------------        1  |  0:00.33 |  5:15.00 |        33    |    23657        2  |  5:15.33 |  4:31.52 |     23658    |    44034        3  |  9:47.10 |  3:48.65 |     44035    |    61199        4  | 13:36.00 |  3:28.58 |     61200    |    76857        5  | 17:04.58 |  4:09.50 |     76858    |    95582        6  | 21:14.33 |  4:26.57 |     95583    |   115589        7  | 25:41.15 |  3:58.40 |    115590    |   133479        8  | 29:39.55 |  4:27.28 |    133480    |   153532        9  | 34:07.08 |  3:14.57 |    153533    |   168139       10  | 37:21.65 |  3:49.43 |    168140    |   185357       11  | 41:11.33 |  5:13.35 |    185358    |   208867       12  | 46:24.68 |  3:55.20 |    208868    |   226512       13  | 50:20.13 |  4:33.50 |    226513    |   247037       14  | 54:53.63 |  3:54.45 |    247038    |   264632
Range status and errors
Selected range
Filename C:\Documents and Settings\User\Desktop\f92\Flirts - Take chance on me.wav
Peak level 90.1 %     Extraction speed 0.1 X     Range quality 100.0 %     Copy CRC 8FD52D66     Copy OK
No errors occurred
End of status report
Яндекс.Метрика
Рейтинг@Mail.ru