Лига Справедливости: в Ловушке Времени / JLA Adventures: Trapped in Time (Джанкарло Волп) [2014, мультфильм, фантастика, боевик, WEB-DL 1080p] MVO (SkyeFilmTV)

 

Создавать темы 04-Июл-2014 21:20

Лига Справедливости: в Ловушке Времени / JLA Adventures: Trapped in Time--

  • Год выпуска: 2014
  • Страна: США
  • Жанр: мультфильм, фантастика, боевик
  • Продолжительность: 00:52:35
  • Перевод: Любительский многоголосый [SkyeFilmTV]
  • Субтитры: Английские
  • В ролях: Дидрих Бадер, Лора Бэйли, Данте Баско, Кори Бертон, Грэй ДеЛисл, Джек Де Сена, Майкл Донован, Том Джибис, Питер Джессоп, Эрика Латтрелл
  • Режиссёр: Джанкарло Волп

    Величайший злодей всех времён, Лекс Лютор, побежден Лигой Справедливости. Он погребён в безжизненной ледяной пустыне. Но наступил 31-ый век. Время мира и спокойствия. А Каратэ-Киду не терпится вступить в Легион Супергероев. И вот, находясь в музее с Венерой, он случайно, хвастаясь своими навыками, освобождает замороженного в глыбе льда Лекса Лютора. Оказавшись в будущем в полном одиночестве в его руки попадает великий артефакт - Пески Времени, позволяющий своему владельцу путешествовать во времени. И с неудержимым намерением отомстить за своё поражение Лиге Справедливости, Лекс Лютор отправляется назад в прошлое.--
  • Качество: WEB-DL 1080p
  • Формат: MKV
  • Видео кодек: AVC
  • Аудио кодек: AC3
  • Видео: AVC, 1916x1076, 4819 Кбит/сек, 23.976 кадр/сек
  • Аудио: АС3, 192 Кбит/сек, 6 канала(ов), 48,0 КГц - Русский
  • Аудио: АС3, 192 Кбит/сек, 6 канала(ов), 48,0 КГц - Английский
--

MediaInfo:

Complete name                 JLA Adventures Trapped in Time.2014.WEB-DL.1080p.mkv
Format                         : Matroska
Format version                 : Version 4 / Version 2
File size                      : 1.95 GiB
Duration                       : 52mn 35s
Overall bit rate               : 5 308 Kbps
Movie name                     : JLA Adventures: Trapped in Time.2014.WEB-DL 1080p -Azureus-
Encoded date                   : UTC 2014-05-26 17:21:51
Writing application            : mkvmerge v6.8.0 ('Theme for Great Cities') 32bit built on Mar  2 2014 21:27:07
Writing library                : libebml v1.3.0 + libmatroska v1.4.1
Video
ID                             : 1
Format                         : AVC
Format/Info                    : Advanced Video Codec
Format profile                 : [email protected]
Format settings, CABAC         : Yes
Format settings, ReFrames      : 4 frames
Codec ID                       : V_MPEG4/ISO/AVC
Duration                       : 52mn 35s
Bit rate                       : 4 819 Kbps
Width                          : 1 916 pixels
Height                         : 1 076 pixels
Display aspect ratio           : 16:9
Frame rate mode                : Constant
Frame rate                     : 23.976 fps
Color space                    : YUV
Chroma subsampling             : 4:2:0
Bit depth                      : 8 bits
Scan type                      : Progressive
Bits/(Pixel*Frame)             : 0.097
Stream size                    : 1.77 GiB (91%)
Language                       : English
Default                        : Yes
Forced                         : No
Color primaries                : BT.709
Transfer characteristics       : BT.709
Matrix coefficients            : BT.709
Audio #1
ID                             : 2
Format                         : AC-3
Format/Info                    : Audio Coding 3
Mode extension                 : CM (complete main)
Format settings, Endianness    : Big
Codec ID                       : A_AC3
Duration                       : 52mn 35s
Bit rate mode                  : Constant
Bit rate                       : 192 Kbps
Channel(s)                     : 2 channels
Channel positions              : Front: L R
Sampling rate                  : 48.0 KHz
Bit depth                      : 16 bits
Compression mode               : Lossy
Stream size                    : 72.2 MiB (4%)
Title                          : MVO - SkyeFilmTV
Language                       : Russian
Default                        : Yes
Forced                         : No
Audio #2
ID                             : 3
Format                         : AC-3
Format/Info                    : Audio Coding 3
Mode extension                 : CM (complete main)
Format settings, Endianness    : Big
Codec ID                       : A_AC3
Duration                       : 52mn 35s
Bit rate mode                  : Constant
Bit rate                       : 192 Kbps
Channel(s)                     : 2 channels
Channel positions              : Front: L R
Sampling rate                  : 48.0 KHz
Bit depth                      : 16 bits
Compression mode               : Lossy
Stream size                    : 72.2 MiB (4%)
Title                          : ENG
Language                       : English
Default                        : No
Forced                         : No
Text
ID                             : 4
Format                         : UTF-8
Codec ID                       : S_TEXT/UTF8
Codec ID/Info                  : UTF-8 Plain Text
Title                          : Eng Sub - full
Language                       : English
Default                        : No
Forced                         : No
Menu
00:00:00.000                   : en:1.
00:09:43.000                   : en:2.
00:18:36.000                   : en:3.
00:30:35.000                   : en:4.
00:39:19.000                   : en:5.
00:49:36.000                   : en:6.
00:50:33.000                   : en:7.

Скриншоты:

Яндекс.Метрика
Рейтинг@Mail.ru