(Шансон) VA - Ээхх, Разгуляй! - часть 3 - 2010, FLAC (image+.cue), lossless

 

Создавать темы 01-Июл-2014 21:49

--Ээхх, Разгуляй! - часть 3-- Жанр: Шансон
Страна-производитель диска: Россия
Год издания: 2010
Издатель (лейбл): КВАДРО-ДИСК
Аудиокодек: FLAC (*.flac)
Тип рипа: image+.cue
Битрейт аудио: lossless
Продолжительность: 01:02:20
Наличие сканов в содержимом раздачи: да


01. Елена Ваенга -- Ванечка (3:33)
02. Андрей Бандера -- Зацепила (3:11)
03. Виктор Королев -- За твою красивую улыбку (3:56)
04. группа Лесоповал -- Гитарка (3:52)
05. Михаил Шуфутинский -- Брато (3:24)
06. Любовь Успенская -- От Москвы до Шепетовки (3:09)
07. Александр Новиков -- Крошка (4:13)
08. Александр Кузнецов -- Амулет (3:13)
09. группа Божья Коровка -- Теплоход (3:26)
10. Алена Апина -- Семечек стакан (3:26)
11. Юрий Лоза -- Гараж (3:33)
12. Виктория Цыганова -- Праздничная (3:29)
13. Жека -- Когда не нужно лишних слов (3:53)
14. Ирина Круг -- Я прочитаю в глазах твоих (3:25)
15. Стас Михайлов -- Живи и знай (2:56)
16. Чумаков Сергей -- От весны до весны (3:31)
17. группа Республика -- Ландыши (2:46)
18. Вилли Токарев -- Чубчик кучерявый (3:22)

Отчёт EAC

Exact Audio Copy V1.0 beta 1 from 15. November 2010
Отчёт EAC об извлечении, выполненном 19. октября 2011, 23:00
Various / Ээхх, Разгуляй! часть 3
Дисковод: Optiarc DVD RW AD-7260S Adapter: 1 ID: 0
Режим чтения : Достоверность
Использование точного потока : Да
Отключение кэша аудио : Да
Использование указателей C2 : Нет
Коррекция смещения при чтении : 48
Способность читать области Lead-in и Lead-out : Нет
Заполнение пропущенных сэмплов тишиной : Да
Удаление блоков с тишиной в начале и конце : Нет
При вычислениях CRC использовались нулевые сэмплы : Да
Интерфейс : Встроенный Win32-интерфейс для Win NT/2000
Выходной формат : Внутренние WAV-операции
Формат сэмплов : 44.100 Гц; 16 бит; стерео
TOC извлечённого CD
Трек | Старт | Длительность | Начальный сектор | Конечный сектор
---------------------------------------------------------------------
1 | 0:00.00 | 3:33.00 | 0 | 15974
2 | 3:33.00 | 3:11.34 | 15975 | 30333
3 | 6:44.34 | 3:55.54 | 30334 | 48012
4 | 10:40.13 | 3:51.71 | 48013 | 65408
5 | 14:32.09 | 3:24.02 | 65409 | 80710
6 | 17:56.11 | 3:09.36 | 80711 | 94921
7 | 21:05.47 | 4:13.33 | 94922 | 113929
8 | 25:19.05 | 3:12.66 | 113930 | 128395
9 | 28:31.71 | 3:26.02 | 128396 | 143847
10 | 31:57.73 | 3:25.71 | 143848 | 159293
11 | 35:23.69 | 3:33.35 | 159294 | 175303
12 | 38:57.29 | 3:29.37 | 175304 | 191015
13 | 42:26.66 | 3:52.39 | 191016 | 208454
14 | 46:19.30 | 3:25.33 | 208455 | 223862
15 | 49:44.63 | 2:55.39 | 223863 | 237026
16 | 52:40.27 | 3:31.35 | 237027 | 252886
17 | 56:11.62 | 2:46.26 | 252887 | 265362
18 | 58:58.13 | 3:21.63 | 265363 | 280500
Характеристики диапазона извлечения и сообщения об ошибках
Выбранный диапазон
Имя файла C:\Users\Анатолий\Desktop\Музыка\VA Ээхх, Разгуляй! - часть 3\Various - Ээхх, Разгуляй! часть 3.wav
Пиковый уровень 97.7 %
0.2 X
Качество диапазона 99.9 %
CRC теста 066E3B86
CRC копии 066E3B86
Копирование... OK
Ошибок не произошло
AccurateRip: сводка
Трек 1 нет в базе данных
Трек 2 нет в базе данных
Трек 3 нет в базе данных
Трек 4 нет в базе данных
Трек 5 нет в базе данных
Трек 6 нет в базе данных
Трек 7 нет в базе данных
Трек 8 нет в базе данных
Трек 9 нет в базе данных
Трек 10 нет в базе данных
Трек 11 нет в базе данных
Трек 12 нет в базе данных
Трек 13 нет в базе данных
Трек 14 нет в базе данных
Трек 15 нет в базе данных
Трек 16 нет в базе данных
Трек 17 нет в базе данных
Трек 18 нет в базе данных
Ни одного трека нет в базе AccurateRip
Конец отчёта
==== F4C2BC8CFC9BCC6CE610627C506D86773DD73248CFB64270668A2AB1D0441EB6 ====
Яндекс.Метрика
Рейтинг@Mail.ru