Божий дар (Сергей Братерский) [1998, мультфильм, короткометражка, SATRip]

 

Создавать темы 01-Июл-2014 02:11

Божий дар
Страна: Россия
Производство: Наше кино
Жанр: мультфильм, короткометражка
Продолжительность: 00:04:09
Год выпуска: 1998
Русские субтитры: нет
Режиссёр: Сергей Братерский
Роли озвучивали: Людмила Гнилова, Андрей Ярославцев
Описание: Говорят, от любви вырастают крылья. Только никто не знает, что потом с этими крыльями делать…
Кинопоиск
Качество: SATRip
Формат: AVI
Видео: 720x544 (1.32:1), 25 fps, XviD MPEG-4 ~1998 kbps avg, 0.204 bit/pixel
Аудио: 44.1 kHz, MPEG Layer 3, 1 ch, ~128.00 kbps avg
Субтитры: Отсутствуют

Подробные технические данные

GeneralComplete name : E:\1\Божий дар 1998.aviFormat : AVIFormat/Info : Audio Video InterleaveFile size : 63.5 MiBDuration : 4mn 9sOverall bit rate : 2 136 KbpsWriting application : VirtualDubMod 1.5.10.3 | www.virtualdub-fr.org || (build 2550/release)Writing library : VirtualDubMod build 2550/release
VideoID : 0Format : MPEG-4 VisualFormat profile : Advanced [email protected] settings, BVOP : 2Format settings, QPel : NoFormat settings, GMC : No warppointsFormat settings, Matrix : Default (H.263)Codec ID : XVIDCodec ID/Hint : XviDDuration : 4mn 9sBit rate : 1 998 KbpsWidth : 720 pixelsHeight : 544 pixelsDisplay aspect ratio : 4:3Frame rate : 25.000 fpsColor space : YUVChroma subsampling : 4:2:0Bit depth : 8 bitsScan type : ProgressiveCompression mode : LossyBits/(Pixel*Frame) : 0.204Stream size : 59.4 MiB (94%)Writing library : XviD 73
AudioID : 1Format : MPEG AudioFormat version : Version 1Format profile : Layer 3Codec ID : 55Codec ID/Hint : MP3Duration : 4mn 9sBit rate mode : ConstantBit rate : 128 KbpsChannel count : 1 channelSampling rate : 44.1 KHzCompression mode : LossyStream size : 3.81 MiB (6%)Alignment : Split accross interleavesInterleave, duration : 40 ms (1.00 video frame)Interleave, preload duration : 500 msWriting library : LAME3.99rEncoding settings : -m m -V 4 -q 2 -lowpass 20.5 -b 128

Скриншоты


Яндекс.Метрика
Рейтинг@Mail.ru