Е. Упит, А. Коен, Н. Околот | Фестиваль вебинаров от успешных коммерческих фотографов (2014) [PCRec]

 

Создавать темы 28-Июн-2014 03:40

Е. Упит, А. Коен, Н. Околот
Фестиваль вебинаров от успешных коммерческих фотографов
- Автор (режиссер): Е. Упит, А. Коен, Н. Околот
Жанр: Обучающие видеуроки
Продолжительность: 06:01:46
Качество видео: PCRec
Видеокодек: MPEG4 (AVC)
Битрейт видео: ~744 Kbps
Размер кадра: 1280х720
Аудиокодек: AAC
Битрейт аудио: 192 Kbps, 2 ch
Описание:
Предлагаем вам трехдневный фестиваль вебинаров от успешных коммерческих фотографов Анастасии Коен, Анастасии Околот и Екатерины Упит. За три вечера вам раскроют профессиональные секреты обработки фотографий, создания фотокниг и переговоров с клиентами.
Это нужно вам, если
*Вы хотите правильного "Сарафана".
*Вы хотите, чтобы все ваши клиенты были довольны.
*Вы хотите перевести большинство Ваших клиентов в категорию постоянных.
*Вы хотите зарабатывать больше денег! Система UPSale.
*Вы хотите быстро и качественно верстать книги для себя и своих клиентов.
*Вы хотите получить в подарок 30 классических шаблонов для верстки фотокниг.
*Вы хотите волшебно обрабатывать фото.
*Вы хотите узнать много новых модных методов обработки и тонирования фото.

Содержание вебинаров:

Екатерина Упит - Волшебные цвета в программе Photoshop
*Основные тенденции в обработке.
*Золотой закат. Ослепительная осень.
*Сочная летняя зелень.
*Морозная зима — красивый синий цвет.
*Приручение кривых. Кривые RGB и кривые Lab.
*Техническая коррекция с помощью кривых.
*Тонирование с помощью кривых.
*Акцентирование - что это такое и как это можно реализовать методами Photoshop.
;*Основные режимы наложения слоёв — простой рецепт использования.
*Волшебный контраст и эффект лёгкого мерцания изображения..
*Хитрый режим наложения как один из инструментов тонирования.
*Простые методы наложения текстур на фотографию.
Анастасия Коен - Вебинар по созданию и верстке фотокниг
1. Фотокнига – необходимость или роскошь?
-5 причин предлагать клиентам фотокниги.
2. Книги, которые можно сделать - обзор возможностей печати фотокниг.
-Форматы книг. Популярные и не очень.
-Типы бумаги в фотокнигах.
-Разновидности обложек в фотокнигах.
3. Обзор основных производителей фотокниг в Санкт-Петербурге.
-Сводная таблица цен у различных производителей.
-Возможности печати различных производителей.
4. Основы верстки фотокниг.
-Цвета в фотокниге.
-Композиция в фотокниге.
5. Верстка книг.
-Делаем развороты. Практика в фотошопе.
-Дополнительные элементы: рамки, надписи и др.
-Фотообложка. Компоновка фотографий.
7. Разные размеры.
-Превращаем 30 шаблонов 20х20 в 30 шаблонов 30х30 за 4 клика.
-Автоматизация процесса.
Настя Околот - Довольный клиент - это успех. Рекомендующий клиент - это победа!
*Профилактика недовольных клиентов
*Как понять, чего именно хочет клиент?
*Тактика разрешения конфликтных ситуаций. Жесткое отстаивание своей позиции.
*Компромисс или взаимовыгодное сотрудничество - ищем оптимальные решение
*Организация потока клиентов по средствам сарафанного радио.
*Как мотивировать клиентов давать рекомендации?
*Секреты лояльности. Почему кто-то становится постоянным клиентом, а кто-то нет?
*Как создавать постоянных клиентов?

MediaInfo

General
Complete name : Екатерина Упит.mp4
Format : MPEG-4
Format profile : Base Media / Version 2
Codec ID : mp42
File size : 710 MiB
Duration : 1h 46mn
Overall bit rate : 937 Kbps
Encoded date : UTC 2014-06-18 14:24:38
Tagged date : UTC 2014-06-18 14:24:49
©TIM : 00:00:00:00
©TSC : 25
©TSZ : 1
Video
ID : 1
Format : AVC
Format/Info : Advanced Video Codec
Format profile : [url=mailto:[email protected]][email protected][/url]
Format settings, CABAC : Yes
Format settings, ReFrames : 3 frames
Codec ID : avc1
Codec ID/Info : Advanced Video Coding
Duration : 1h 46mn
Bit rate mode : Variable
Bit rate : 744 Kbps
Maximum bit rate : 5 000 Kbps
Width : 1 280 pixels
Height : 720 pixels
Display aspect ratio : 16:9
Frame rate mode : Constant
Frame rate : 25.000 fps
Standard : PAL
Color space : YUV
Chroma subsampling : 4:2:0
Bit depth : 8 bits
Scan type : Progressive
Bits/(Pixel*Frame) : 0.032
Stream size : 564 MiB (79%)
Language : English
Encoded date : UTC 2014-06-18 14:24:38
Tagged date : UTC 2014-06-18 14:24:38
Color primaries : BT.709-5, BT.1361, IEC 61966-2-4, SMPTE RP177
Transfer characteristics : BT.709-5, BT.1361
Matrix coefficients : BT.709-5, BT.1361, IEC 61966-2-4 709, SMPTE RP177
Audio
ID : 2
Format : AAC
Format/Info : Advanced Audio Codec
Format profile : LC
Codec ID : 40
Duration : 1h 46mn
Bit rate mode : Variable
Bit rate : 192 Kbps
Maximum bit rate : 279 Kbps
Channel(s) : 2 channels
Channel positions : Front: L R
Sampling rate : 48.0 KHz
Compression mode : Lossy
Stream size : 144 MiB (20%)
Language : English
Encoded date : UTC 2014-06-18 14:24:38
Tagged date : UTC 2014-06-18 14:24:38
Скриншоты:

Яндекс.Метрика
Рейтинг@Mail.ru