Хантер Х Хантер / Hunter X Hunter Remake (Кодзина Хироси) [TV] [1-134 из ххх] [2011-2014 г.] [приключения, сёнэн] [HDTVRip] [720p] [RUS]

 

Создавать темы 26-Июн-2014 05:59

Хантер Х Хантер / Hunter X Hunter Remake Год выпуска: 2011-2014
Страна: Япония
Жанр: приключения, сёнэн
Продолжительность: 134 серии по 25 мин
Тип: TV
Озвучка: Любительская (одноголосая, закадровая) от Ancord
Субтитры: отсутствуют
Режиссер: Кодзина Хироси
Студия:
Описание: В мире Hunter x Hunter существует класс людей называемых Охотниками, которые используя психические силы и обученные всевозможным видам борьбы, исследуют дикие уголки в основном цивилизованного мира. Главный герой, юноша по имени Гон (Гун), сын самого великого Охотника. Его отец таинственно исчез много лет назад, и теперь, повзрослев, Гон (Гун) решает пойти по его стопам. По пути он находит несколько компаньонов: Леорио, честолюбивый доктор медицинских наук, чья цель - обогащение. Курапика - единственный выживший из своего клана, чья цель - месть. Киллуа - наследник семьи наемных убийц, чья цель - тренировка. Вместе они добиваются цели и становятся Охотниками, но это только первая ступенька на их долгом пути… А впереди история Килуллы и его семьи, история мести Курапики и конечно же обучение, новые задания и приключения! Сериал был остановлен на мести Курапики…Что же ждет нас дальше спустя столько лет?

Источник: HDTVRip
Контейнер: MP4
Видео кодек: H.264
Видео: 1280x720; 23.976 fps; ~2200 Kbps
Аудио RUS: MP3 stereo; 48000 Hz; 192 kbps

Media Info

Общее
Полное имя : F:\аниме\[AniDub]_Hunter_X_Hunter_Remake_[Ancord]\[AniDub]_Hunter_X_Hunter_2011_-_001_[720p_x264_AAC]_[Ancord].mp4
Формат : MPEG-4
Профиль формата : JVT
Идентификатор кодека : avc1
Размер файла : 286 Мбайт
Продолжительность : 23 м.
Режим общего битрейта : Переменный
Общий поток : 1694 Кбит/сек
Дата кодирования : UTC 2011-10-01 18:09:47
Дата пометки : UTC 2011-10-01 18:09:47
Программа кодирования : Yamb 2.1.0.0 []http://yamb.unite-video.com]
Видео
Идентификатор : 1
Формат : AVC
Формат/Информация : Advanced Video Codec
Профиль формата : [email protected]
Параметр CABAC формата : Да
Параметр ReFrames формата : 8 кадров
Идентификатор кодека : avc1
Идентификатор кодека/Информация : Advanced Video Coding
Продолжительность : 23 м.
Битрейт : 1500 Кбит/сек
Максимальный битрейт : 5721 Кбит/сек
Ширина : 1280 пикселей
Высота : 720 пикселей
Соотношение сторон : 16:9
Режим частоты кадров : Постоянный
Частота кадров : 23,976 кадра/сек
Цветовое пространство : YUV
Субдискретизация насыщенности : 4:2:0
Битовая глубина : 8 бит
Тип развёртки : Прогрессивная
Бит/(Пиксели*Кадры) : 0.068
Размер потока : 253 Мбайт (88%)
Заголовок : Hunter X Hunter - 001 [AniDub.com]
Библиотека кодирования : x264 core 98 r1629 2e81ce1
Настройки программы : cabac=1 / ref=8 / deblock=1:0:0 / analyse=0x3:0x133 / me=umh / subme=7 / psy=1 / psy_rd=1.00:0.00 / mixed_ref=1 / me_range=16 / chroma_me=1 / trellis=2 / 8x8dct=1 / cqm=0 / deadzone=21,11 / fast_pskip=0 / chroma_qp_offset=-2 / threads=1 / sliced_threads=0 / nr=0 / decimate=1 / interlaced=0 / constrained_intra=0 / bframes=6 / b_pyramid=2 / b_adapt=2 / b_bias=0 / direct=3 / weightb=1 / weightp=0 / keyint=240 / keyint_min=24 / scenecut=40 / intra_refresh=0 / rc_lookahead=40 / rc=2pass / mbtree=1 / bitrate=1500 / ratetol=1.0 / qcomp=0.60 / qpmin=10 / qpmax=51 / qpstep=4 / cplxblur=20.0 / qblur=0.5 / vbv_maxrate=3486 / vbv_bufsize=3487 / ip_ratio=1.40 / aq=1:0.50 / nal_hrd=none
Дата кодирования : UTC 2011-10-01 18:09:47
Дата пометки : UTC 2011-10-01 18:09:57
Аудио
Идентификатор : 2
Формат : AAC
Формат/Информация : Advanced Audio Codec
Профиль формата : LC
Идентификатор кодека : 40
Продолжительность : 23 м.
Вид битрейта : Переменный
Битрейт : 192 Кбит/сек
Максимальный битрейт : 196 Кбит/сек
Каналы : 2 канала
Расположение каналов : Front: L R
Частота : 48,0 КГц
Метод сжатия : С потерями
Размер потока : 32,5 Мбайт (11%)
Заголовок : Ancord
Язык : Russian
Дата кодирования : UTC 2011-10-01 18:09:56
Дата пометки : UTC 2011-10-01 18:09:57

Список эпизодов

01. Departure x And x Friends
02. Test x Of x Tests
03. Rivals x For x Survival
04. Hope x And x Ambition
05. Hisoka x Is x Sneaky
06. A x Surprising x Challenge
07. Showdown x On The x Airship
08. Decision x By x Majority?
09. Beware x Of x Prisoners
10. Trick x To The x Trick
11. Trouble x With The x Gamble
12. Last x Test Of x Resolve
13. Letter x From x Gon
14. Hit x The x Target
15. Explosion x Of x Deception
16. Defeat x And x Disgrace
17. Trap x In The x Hole
18. Big x Time x Intervie
19. Can`t Win x And x Can`t Lose
20. Baffling x Turn Of x Events
21. Some x Brother x Trouble
22. A x Dangerous x Watchdog
23. The x Guard`s x Duty
24. The x Zoldyck x Family
25. Can`t See x If x You`re Blind!
26. Then x And x After
27. Arrival x At The x Arena
28. Nen x And x Nen
29. Awakening X And X Potential
30. Fierce x And x Ferocious
31. Destiny x And x Tenacity
32. A x Surprising x Win2
33. An x Empty x Threat
34. Power x To x Avenge
35. The x True x Pass
36. A Big Debt x And x A Small Kick
37. Ging x And x Gon
38. Reply x From x Dad
39. Wish x And x Promise
40. Nen x Users x Unite?
41. Gathering x Of x Heroes
42. Defend x And x Attack
43. A x Shocking x Tragedy
44. Buildup x To A x Fierce Battle
45. Restraint x And x Vow
46. Chasing x And x Waiting
47. Condition x And x Condition
48. Very x Sharp x Eye
49. Pursuit x And x Analysis
50. Ally x And x Sword
51. A x Brutal x Battlefield
52. Assault x And x Impact
53. Fake x And x Psyche
54. Fortunes x Aren`t x Right?
55. Allies x And x Lies
56. Beloved x And x Beleaguered
57. Initiative x And x Law
58. Signal x to x Retreat
59. Bid x And x Haste
60. End x And x Beginning
61. Invitation x And x Friend
62. Reality x And x Raw
63. A x Hard x Master
64. Strengthen x And x Threaten
65. Evil Fist x And x Rock-Paper-Scissors
66. Strategy x And x Scheme
67. 15 x 15
68. Pirates x And x Guesses
69. A x Heated x Showdown
70. Guts x And x Courage
71. Bargain x And x Deal
72. Chase x And x Chance
73. Insanity x And x Sanity
74. Victor x And x Loser
75. Ging`s Friends x And x True Friends
76. Reunion x And x Understandingе
77. Unease x And x Sighting / Тревога x И x Наблюдение
78. Very x Rapid x Reproduction / Очень x Быстрое x Размножение
79. No x Good x NGL / Ничего хорошего х В х НЗЖ
80. Evil x And x Terrible / Зло x И x Ужас
81. The x Fight x Begins / Битва x Начинается
82. Kite x And x Slots / Кайто x И x Слот-машина
83. Inspiration x To x Evolve / Побуждение x К x Развитию
84. A x Fated x Awakening / Предопределённое x Пробуждение
85. Light x And x Darkness / Свет x И x Тьма
86. Promise x And x Reunion / Обещание x И x Воссоединение
87. Duel x And x Escape / Дуэль x И x Побег
88. Janken x to x Jakuten
89. Yasashisa x to x Tsuyosa
90. Risoku x to x Noroi
91. Kyousha x to x Gyakusha
92. Hitotsu no Negai x to x Futatsu no Chikai
93. Dēto x to x Pāmu
94. Tomodachi x to x Tabidachi
95. Urami x to x Sugomi
96. Muhō x na x Hōmu
97. Gekitō x de x Gekimetsu
98. Sennixyuu x to x Senbetsu
99. Konbineeshon x to x Eborixyuushon
100. Tsuiseki x niwa x Tsuigeki
101. Ikarugo x to x Ikazuchi
102. Nouryoku x to x Taikixyoku
103. Tsumi x to x Yomi
104. Mayoi x to x Tomadoi
105. Kakugo x to x Kakusei
106. Novu x to x Morau
107. Ritān x to x Ritaia
108. Komugi x no x Gungi
109. Kōshin Kaishi x de x Kōdō Kaishi
110. Konwaku x to x Omowaku
111. Totsunixyuu × shite × Shinnixyuu
112. Kaibutsu x to x Kaibutsu
113. Mushi x Dakedo x Kashi
114. Bundan x to x Gosan
115. Gimu × to × Gimon
116. Fukushū × to × Shūfuku
117. Bujoku × niwa × Setsujoku
118. Itsuwari × no × Ikari
119. Tsuyoi × ka × Yowai × ka
120. Nisemono × to × Honmono
121. Haiboku × to × Menboku
122. Tatemae × to × Namae
123. Mukade × to × Omoide
124. Kekkai × to × Kakusei
125. Bu no Tsuyomi × to × Bu no Kiwami
126. Zero × to × Rōzu
127. Tekii × to × Ketsui
128. Mujounoyorokobi × to × Mushounoai
129. Hyōteki × to × Mokuteki
130. Mahou × te × Zetsubou
131. Ikari × to × Hikari
132. Senkou × to × Hatsudou
133. Seizon × no × Kigen
134.Konohi × to × Kono Shunkan

Скриншоты

добавлена 134 серия
Яндекс.Метрика
Рейтинг@Mail.ru