Одиннадцатый час / The 11th Hour (Лейла Коннерс Петерсен / Leila Conners Petersen, Надя Коннерс / Nadia Conners) [2007 г., документальный, DVDRip] DVO

 

Создавать темы 24-Июн-2014 02:14

-Одиннадцатый час / The 11th Hour- Год выпуска: 2007 г.
Производство: США , Tree Media Group, Greenhour, Appian Way
Жанр: документальный
Продолжительность: 01:28:47
Мировая премьера: 19 мая 2007
Перевод: Профессиональный (двухголосый, закадровый)
Режиссёр: Лейла Коннерс Петерсен / Leila Conners Petersen, Надя Коннерс / Nadia Conners-В ролях: Леонардо ДиКаприо, Кенни Аусубель, Том Хартманн, Вангари Маатай, Сандра Постел, Пол Стаметц, Дэвид Орр, Стивен Хокинг, Орен Лайонс, Эндрю С. Ревкин-Описание: В рамках этой документальной картины Леонардо Ди Каприо рассказывает об опасностях глобального потепления и способах реабилитации экосистем нашей планеты.
Речь идёт о программах устойчивого развития и поддержки биологического разнообразия, а также о разработке новейших технологий по утилизации отходов.
-Качество видео: DVDRip
Контейнер: AVI
Видео кодек: DivX
Аудио кодек: AC3
Видео: 704x384 (1.85:1), 1809 kbps, 25 fps, 0.268 bit/pixel
Аудио: 384 kbps, 6 ch, 48.0 kHz
Cубтитры: отсутствуют

Media Info

Общее
Полное имя : Одиннадцатый час_ The 11th Hour.2007.[DVDRip].avi
Формат : AVI
Формат/Информация : Audio Video Interleave
Размер файла : 1,37 Гбайт
Продолжительность : 1 ч. 28 м.
Общий поток : 2202 Кбит/сек
Программа кодирования : VirtualDubMod 1.5.10.2 (build 2540/release)
Библиотека кодирования : VirtualDubMod build 2540/release
Видео
Идентификатор : 0
Формат : MPEG-4 Visual
Параметр BVOP формата : Да
Параметр QPel формата : Нет
Параметр GMC формата : Без точки перехода
Параметр матрицы формата : Default (H.263)
Идентификатор кодека : DX50
Идентификатор кодека/Подсказка : DivX 5
Продолжительность : 1 ч. 28 м.
Битрейт : 1809 Кбит/сек
Ширина : 704 пикселя
Высота : 384 пикселя
Соотношение сторон : 1,85:1
Частота кадров : 25,000 кадров/сек
Цветовое пространство : YUV
Субдискретизация насыщенности : 4:2:0
Битовая глубина : 8 бит
Тип развёртки : Прогрессивная
Метод сжатия : С потерями
Бит/(Пиксели*Кадры) : 0.268
Размер потока : 1,12 Гбайт (82%)
Библиотека кодирования : DivX 6.8.3-6.8.4 (UTC 2008-06-07)
Аудио
Идентификатор : 1
Формат : AC-3
Формат/Информация : Audio Coding 3
Расширение режима : CM (complete main)
Параметр Endianness формата : Big
Идентификатор кодека : 2000
Продолжительность : 1 ч. 28 м.
Вид битрейта : Постоянный
Битрейт : 384 Кбит/сек
Каналы : 6 каналов
Расположение каналов : Front: L C R, Side: L R, LFE
Частота : 48,0 КГц
Битовая глубина : 16 бит
Метод сжатия : С потерями
Размер потока : 244 Мбайт (17%)
Выравнивание : Разделение по промежуткам
Продолжительность промежутка : 40 мс. (1,00 видеокадр)
Время предзагрузки промежутка : 500 мс.
Яндекс.Метрика
Рейтинг@Mail.ru