[ Сегодня на трекере фрилич! Идет свободное скачивание без начисления Download ]

(Melodic Death Metal) Path of Debris - The Eyes of the Basilisk - 1998, FLAC (image+.cue), lossless

 

Создавать темы 22-Июн-2014 20:54

Path of Debris - The Eyes of the Basilisk
Страна: Germany
Жанр: Melodic Death Metal
Год издания: 1998
Производитель диска: System Shock [IR-C-134]
Аудиокодек: FLAC (*.flac)
Тип рипа: image+.cue
Битрейт аудио: lossless
Продолжительность: 0:38:50
Источник: Original CD
Сканы: да
Треклист:
01. Epilogue (1:19)
02. The Eyes of the Basilisk (4:08)
03. Flight of the Valkyries (3:32)
04. Left In Loneliness (4:39)
05. Destiny (5:36)
06. Beyond The Ivory Gate (4:42)
07. Through Fire and Ice (4:47)
08. Stormrider (4:43)
09. Under Siege (5:24)

Отчёт ЕАС

Exact Audio Copy V1.0 beta 3 from 29. August 2011
EAC extraction logfile from 22. June 2014, 18:05
Path Of Debris / The Eyes Of The Basilisk
Used drive : ASUS DRW-1612BL Adapter: 2 ID: 0
Read mode : SecureUtilize accurate stream : YesDefeat audio cache : YesMake use of C2 pointers : No
Read offset correction : 6Overread into Lead-In and Lead-Out : NoFill up missing offset samples with silence : YesDelete leading and trailing silent blocks : NoNull samples used in CRC calculations : YesUsed interface : Installed external ASPI interface
Used output format : User Defined EncoderSelected bitrate : 128 kBit/sQuality : HighAdd ID3 tag : NoCommand line compressor : C:\Program Files\EAC\Exact Audio Copy\Flac\flac.exeAdditional command line options : -V -8 -T "Date=%year%" -T "Genre=%genre%" %source%
TOC of the extracted CD
Track | Start | Length | Start sector | End sector --------------------------------------------------------- 1 | 0:00.00 | 1:19.00 | 0 | 5924 2 | 1:19.00 | 4:08.20 | 5925 | 24544 3 | 5:27.20 | 3:32.18 | 24545 | 40462 4 | 8:59.38 | 4:39.11 | 40463 | 61398 5 | 13:38.49 | 5:36.13 | 61399 | 86611 6 | 19:14.62 | 4:42.09 | 86612 | 107770 7 | 23:56.71 | 4:46.53 | 107771 | 129273 8 | 28:43.49 | 4:42.57 | 129274 | 150480 9 | 33:26.31 | 5:23.58 | 150481 | 174763
Range status and errors
Selected range
Filename C:\darkbrides\Path Of Debris - The Eyes Of The Basilisk.wav
Peak level 94.3 % Extraction speed 8.3 X Range quality 100.0 % Test CRC 38D558E1 Copy CRC 38D558E1 Copy OK
No errors occurred
AccurateRip summary
Track 1 cannot be verified as accurate (confidence 2) [F51D82DD], AccurateRip returned [513957C8] (AR v2)Track 2 cannot be verified as accurate (confidence 2) [C601F657], AccurateRip returned [0977237F] (AR v2)Track 3 cannot be verified as accurate (confidence 2) [DDDC66E0], AccurateRip returned [59782BD3] (AR v2)Track 4 cannot be verified as accurate (confidence 2) [2FA28522], AccurateRip returned [71D6AE91] (AR v2)Track 5 cannot be verified as accurate (confidence 2) [6338923A], AccurateRip returned [EA4E1356] (AR v2)Track 6 cannot be verified as accurate (confidence 2) [D3C6094F], AccurateRip returned [11BA2887] (AR v2)Track 7 cannot be verified as accurate (confidence 2) [629D5542], AccurateRip returned [FF00F7A9] (AR v2)Track 8 cannot be verified as accurate (confidence 2) [C7050D91], AccurateRip returned [B487C505] (AR v2)Track 9 cannot be verified as accurate (confidence 2) [1C77DAE9], AccurateRip returned [BC640AB7] (AR v2)
No tracks could be verified as accurateYou may have a different pressing from the one(s) in the database
End of status report
==== Log checksum 32E7A97E768B6E2A0FE505331743EA827135DF7490009B85FD9DA0148BA39034 ====
-

Яндекс.Метрика
Рейтинг@Mail.ru