Атлантида 2: Возвращение Майло (2003) BDRip-AVC | iPad | D / Atlantis: Milo's Return (2003) BDRip-AVC | iPad |

 

Создавать темы 21-Июн-2014 18:59

Атлантида 2: Возвращение Майло (2003) BDRip-AVC | iPad | D / Atlantis: Milo's Return (2003) BDRip-AVC | iPad | D- Год выпуска: 2003
Страна: США. Walt Disney Pictures
Жанр: мультфильм, боевик, комедия, приключения, семейный
Продолжительность: 01:20:25
Перевод: Профессиональный (полное дублирование)
Режиссер: Виктор Кук, Тоби Шелтон, Тэд Стоунс
В ролях: Джеймс Арнольд Тейлор, Кри Саммер, Джон Махони, Жаклин Обрадорс, Дон Новелло, Кори Бертон, Фил Моррис, Флоренс Стэнли, Фрэнк Уэлкер, Стив Барр

Описание:
Мийло, Кида и команда смелых исследователей Атлантиды возвращаются в новых приключениях, полных ожидания и действия. В течение первой экспедиции Майло и Кида открыли подводное царство, а так же спасли его и всех его обитателей. Теперь опасность подкралась с поверхности воды и отважным героям придется покинуть Атлантиду...

MediaInfo:

General
Complete name : I:modoutAtlantis-Milos.Return.2003.576p.D.m4v
Format : MPEG-4
Codec ID : M4V
File size : 1.39 GiB
Duration : 1h 20mn
Overall bit rate mode : Variable
Overall bit rate : 2 476 Kbps
Movie name : Атлантида 2: Возвращение Майло
Performer : Tad Stones, Toby Shelton & Victor A. Cook
Genre : Kids & Family
ContentType : Short Film
Deion : Мийло, Кида и команда смелых исследователей Атлантиды возвращаются в новых приключениях, полных ожидания и действия. В течение первой экспедиции Майло и Кида открыли подводное царство, а так же спасли его и всех его обитателей. Теперь опасность подкр
Recorded date : UTC 2003-04-23 08:00:00
Encoded date : UTC 2014-06-18 19:21:46
Tagged date : UTC 2014-06-18 19:27:28
Copyright : © 2003 Disney Enterprises, Inc. All Rights Reserved.
Service name : AOL
Cover : Yes
ContentRating : mpaa|PG|200|
Title/Sort : Atlantis: Milo's Return
LongDeion : Мийло, Кида и команда смелых исследователей Атлантиды возвращаются в новых приключениях, полных ожидания и действия. В течение первой экспедиции Майло и Кида открыли подводное царство, а так же спасли его и всех его обитателей. Теперь опасность подкралась с поверхности воды и отважным героям придется покинуть Атлантиду...
AppleStoreAccountType : AOL
AppleStoreCountry : Unknown Country
AppleStoreCatalogID : 491626382
Vendor : Apple:vendor_id:2003-88747
Video
ID : 1
Format : AVC
Format/Info : Advanced Video Codec
Format profile : [email protected]
Format settings, CABAC : Yes
Format settings, ReFrames : 10 frames
Codec ID : avc1
Codec ID/Info : Advanced Video Coding
Duration : 1h 20mn
Bit rate : 2 333 Kbps
Maximum bit rate : 21.9 Mbps
Width : 1 024 pixels
Height : 604 pixels
Display aspect ratio : 1.695
Frame rate mode : Constant
Frame rate : 23.976 fps
Color space : YUV
Chroma subsampling : 4:2:0
Bit depth : 8 bits
Scan type : Progressive
Bits/(Pixel*Frame) : 0.157
Stream size : 1.31 GiB (94%)
Title : Atlantis_The.Lost.Empire.2001
Language : English
Encoded date : UTC 2014-06-18 19:21:46
Tagged date : UTC 2014-06-18 19:22:00
Audio
ID : 2
Format : AAC
Format/Info : Advanced Audio Codec
Format profile : LC
Codec ID : 40
Duration : 1h 20mn
Bit rate mode : Variable
Bit rate : 132 Kbps
Maximum bit rate : 144 Kbps
Channel(s) : 1 channel
Channel positions : Front: C
Sampling rate : 48.0 KHz
Compression mode : Lossy
Stream size : 77.6 MiB (5%)
Title : Dub
Language : Russian
Encoded date : UTC 2014-06-18 19:21:57
Tagged date : UTC 2014-06-18 19:22:00
Menu
ID : 3
Codec ID : text
Duration : 1h 20mn
Encoded date : UTC 2014-06-18 19:22:14
Tagged date : UTC 2014-06-18 19:22:14
Bit rate mode : CBR

x264:

x264 [info]: frame I:1142 Avg QP:15.89 size: 85056
x264 [info]: frame P:28575 Avg QP:18.98 size: 24600
x264 [info]: frame B:85964 Avg QP:20.41 size: 7060
x264 [info]: consecutive B-frames: 3.3% 3.3% 20.2% 23.0% 21.5% 11.8% 3.6% 2.9% 5.5% 2.2% 0.7% 0.6% 1.2%
x264 [info]: mb I I16..4: 23.5% 28.7% 47.8%
x264 [info]: mb P I16..4: 1.9% 4.6% 4.6% P16..4: 32.9% 26.7% 11.3% 3.4% 0.6% skip:14.0%
x264 [info]: mb B I16..4: 0.4% 0.7% 0.5% B16..8: 27.2% 11.6% 2.4% direct: 1.8% skip:55.4% L0:50.0% L1:43.8% BI: 6.2%
x264 [info]: 8x8 transform intra:39.3% inter:23.9%
x264 [info]: coded y,uvDC,uvAC intra: 67.5% 68.6% 52.7% inter: 10.7% 8.0% 4.5%
x264 [info]: i16 v,h,dc,p: 31% 9% 29% 31%
x264 [info]: i8 v,h,dc,ddl,ddr,vr,hd,vl,hu: 10% 13% 25% 7% 9% 7% 10% 7% 11%
x264 [info]: i4 v,h,dc,ddl,ddr,vr,hd,vl,hu: 17% 14% 21% 7% 9% 7% 8% 7% 9%
x264 [info]: i8c dc,h,v,p: 34% 32% 19% 14%
x264 [info]: Weighted P-Frames: Y:2.4% UV:1.7%
x264 [info]: ref P L0: 51.5% 4.1% 16.3% 9.9% 5.3% 4.1% 3.5% 1.8% 1.6% 1.5% 0.2% 0.0%
x264 [info]: ref B L0: 57.9% 14.1% 9.4% 5.1% 4.4% 3.3% 2.8% 2.0% 1.1%
x264 [info]: ref B L1: 88.2% 11.8%
x264 [info]: kb/s:2332.88

iTunes tags:

Sort Name: Atlantis: Milo's Return
XID: Apple:vendor_id:2003-88747
Content ID: 491626382
Copyright: © 2003 Disney Enterprises, Inc. All Rights Reserved.
ScreenWriters: Томас Харт, Генри Гилрой, Кевин Хоуппс
Producers: Тэд Стоунс
Director: Виктор Кук, Тоби Шелтон, Тэд Стоунс
Cast: Джеймс Арнольд Тейлор, Кри Саммер, Джон Махони, Жаклин Обрадорс, Дон Новелло, Кори Бертон, Фил Моррис, Флоренс Стэнли, Фрэнк Уэлкер
Rating: PG
Long Deion: Мийло, Кида и команда смелых исследователей Атлантиды возвращаются в новых приключениях, полных ожидания и действия. В течение первой экспедиции Майло и Кида открыли подводное царство, а так же спасли его и всех его обитателей. Теперь опасность подкралась с поверхности воды и отважным героям придется покинуть Атлантиду...
Deion: Мийло, Кида и команда смелых исследователей Атлантиды возвращаются в новых приключениях, полных ожидания и действия. В течение первой экспедиции Майло и Кида открыли подводное царство, а так же спасли его и всех его обитателей. Теперь опасность подкр
Release Date: 2003-04-23T08:00:00Z
Genre: Kids & Family
Artist: Tad Stones, Toby Shelton & Victor A. Cook
Name: Атлантида 2: Возвращение Майло
Качество: BDRip
Видео кодек: H.26x
Видео: 1024x604 (1.695) at 23.976 fps, AVC at 2300 kbps
Аудио: АAС 2.0 132 kbps

Скриншоты

-
Яндекс.Метрика
Рейтинг@Mail.ru