Эта замечательная жизнь / It's a Wonderful Life (1946) BDRip [Colorized]

 

Создавать темы 21-Июн-2014 03:45

-Эта замечательная жизнь / It's a Wonderful Life (1946) BDRip- Год выпуска: 1946
Производство: США, Liberty Films (II)
Жанр: Фэнтези, драма, семейный
Режиссер: Фрэнк Капра
Актеры: Джеймс Стюарт, Донна Рид, Лайонел Бэрримор, Томас Митчелл, Генри Треверс, Бьюла Бонди, Фрэнк Фэйлен, Уорд Бонд, Глория Грэм, Х.Б. Уорнер, Фрэнк Альбертсон, Тодд Карнс, Сэмьюэл С. Хайндс, Мэри Трин, Вирджиния Паттон, Чарльз Уильямс, Сара Эдвардс, Уильям Эдмундс, Лиллиэн Рэндольф, Арджентина Брунетти, Роберт Андерсон, Ронни Ральф, Жан Гэйл, Джанин Энн Руз, Дэнни Маммерт, Джорджи Нокс, Шелдон Леонард, Фрэнк Хэгни, Рэй Уолкер, Чарльз Лэйн
Описание фильма:
В канун Рождества ангелы на небесах обсуждают Джорджа Бэйли, жителя небольшого городка, доведенного бесчисленными проблемами до мысли о самоубийстве. Джордж честный, отзывчивый, любящий муж и отец, владелец небольшой страховой компании всегда хотел уехать из родного города, чтобы повидать мир, но пришлось пожертвовать своей мечтой ради образования брата. Потеря родным дядей денег вкладчиков была последней каплей для Джорджа. На мосту кандидат в самоубийцы, вместо того чтобы прыгать, спасает своего ангела-хранителя, Кларенса Оддбоди. Кларенс показывает ему, каким мрачным местом стал бы его родной город, если бы Джордж никогда не жил и не делал те добрые дела, за которые его все любят...
Перевод: Профессиональный многоголосый (Ru, Ukr)
Субтитры: Отсутствуют
Продолжительность: 02:10:35
Качество видео: BDRip
Видеокодек: XviD
Битрейт видео: ~1759 Кбит/с
Размер кадра: 704x416
Аудио:
1. AC3, 2 ch, 192 Кбит/с - русский (многоголосый)
2. AC3, 2 ch, 192 Кбит/с - украинский (многоголосый)
3. AC3, 2 ch, 192 Кбит/с - английский

MediaInfo:

Общее
Полное имя : D:\NNM\Эта замечательная жизнь\Eta zamechateljnaya zhiznj 1946 BDRip.avi
Формат : AVI
Формат/Информация : Audio Video Interleave
Профиль формата : OpenDML
Настройки формата : rec
Размер файла : 2,14 Гбайт
Продолжительность : 2 ч. 10 м.
Общий поток : 2344 Кбит/сек
Программа кодирования : AVI-Mux GUI 1.17.8.3
Видео
Идентификатор : 0
Формат : MPEG-4 Visual
Профиль формата : Advanced [email protected]
Параметр BVOP формата : 1
Параметр QPel формата : Нет
Параметр GMC формата : Без точки перехода
Параметр матрицы формата : Default (MPEG)
Режим смешивания : Сжатый битовый поток
Идентификатор кодека : XVID
Идентификатор кодека/Подсказка : XviD
Продолжительность : 2 ч. 10 м.
Битрейт : 1759 Кбит/сек
Ширина : 704 пикселя
Высота : 416 пикселей
Соотношение сторон : 1,692
Частота кадров : 25,000 кадров/сек
Цветовое пространство : YUV
Субдискретизация насыщенности : 4:2:0
Битовая глубина : 8 бит
Тип развёртки : Прогрессивная
Метод сжатия : С потерями
Бит/(Пиксели*Кадры) : 0.240
Размер потока : 1,60 Гбайт (75%)
Библиотека кодирования : XviD 1.2.0.dev47 (UTC 2006-11-01)
Аудио #1
Идентификатор : 1
Формат : AC-3
Формат/Информация : Audio Coding 3
Расширение режима : CM (complete main)
Идентификатор кодека : 2000
Продолжительность : 2 ч. 10 м.
Вид битрейта : Постоянный
Битрейт : 192 Кбит/сек
Каналы : 2 канала
Расположение каналов : Front: L R
Частота : 48,0 КГц
Битовая глубина : 16 бит
Метод сжатия : С потерями
Размер потока : 179 Мбайт (8%)
Выравнивание : Соединение по промежуткам
Продолжительность промежутка : 64 мс. (1,60 видеокадра)
Время предзагрузки промежутка : 192 мс.
Заголовок : ORT
Аудио #2
Идентификатор : 2
Формат : AC-3
Формат/Информация : Audio Coding 3
Расширение режима : CM (complete main)
Идентификатор кодека : 2000
Продолжительность : 2 ч. 10 м.
Вид битрейта : Постоянный
Битрейт : 192 Кбит/сек
Каналы : 2 канала
Расположение каналов : Front: L R
Частота : 48,0 КГц
Битовая глубина : 16 бит
Метод сжатия : С потерями
Размер потока : 179 Мбайт (8%)
Выравнивание : Соединение по промежуткам
Продолжительность промежутка : 64 мс. (1,60 видеокадра)
Время предзагрузки промежутка : 192 мс.
Аудио #3
Идентификатор : 3
Формат : AC-3
Формат/Информация : Audio Coding 3
Расширение режима : CM (complete main)
Идентификатор кодека : 2000
Продолжительность : 2 ч. 10 м.
Вид битрейта : Постоянный
Битрейт : 192 Кбит/сек
Каналы : 2 канала
Расположение каналов : Front: L R
Частота : 48,0 КГц
Битовая глубина : 16 бит
Метод сжатия : С потерями
Размер потока : 179 Мбайт (8%)
Выравнивание : Соединение по промежуткам
Продолжительность промежутка : 64 мс. (1,60 видеокадра)
Время предзагрузки промежутка : 192 мс.
Заголовок : Eng
Скриншоты:
Яндекс.Метрика
Рейтинг@Mail.ru