ВАЛЛ-И / WALL-E (2008) BDrip 720p [hand made60fps]

 

Создавать темы 16-Июн-2014 12:14

ВАЛЛ-И / WALL-E--
  • Год выпуска: 2008
  • Страна: США
  • Жанр: Фантастика, Мелодрама, Комедия
  • Продолжительность: 01:38:42
  • Перевод: Дублированный
  • Субтитры: Отсутствуют
  • В ролях: Бен Бертт , Элисса Найт , Джефф Гарлин , Фред Уиллард , Джон Ратценбергер , Кэти Нэджими , Сигурни Уивер , Ники МакЭлрой , Гаррет Палмер , Кай Стил Смит
  • Режиссёр: Эндрю Стэнтон

    Робот ВАЛЛ·И из года в год прилежно трудится на опустевшей Земле, очищая нашу планету от гор мусора, которые оставили после себя улетевшие в космос люди. Он и не представляет, что совсем скоро произойдут невероятные события, благодаря которым он встретит друзей, поднимется к звездам и даже сумеет изменить к лучшему своих бывших хозяев, совсем позабывших родную Землю.--
  • Качество: BDrip 720p [hand made60fps]
  • Формат: MKV
  • Видео кодек: MPEG-4 AVC
  • Аудио кодек: DTS
  • Видео: H.264, ~12000 Кбит/сек, 1280*536, 59,880 кадров/сек
  • Аудио: DTS, 1509 Кбит/сек, 6 каналов, 48,0 КГц
--

MediaInfo

Уникальный идентификатор : 173533129918918564211432690241818047012 (0x828D43DF423F311199624AB07743B224)
Полное имя : Z:\ВАЛЛ-И.mkv
Формат : Matroska
Версия формата : Version 4 / Version 2
Размер файла : 9,32 Гбайт
Продолжительность : 1 ч. 38 м.
Общий поток : 13,5 Мбит/сек
Название фильма : WALLР’В·E (2008)
Дата кодирования : UTC 2014-01-20 07:45:28
Программа кодирования : mkvmerge v6.7.0 ('Back to the Ground') 64bit built on Jan 8 2014 15:10:52
Библиотека кодирования : libebml v1.3.0 + libmatroska v1.4.1
Attachment : Yes / Yes / Yes / Yes / Yes
Видео
Идентификатор : 1
Формат : AVC
Формат/Информация : Advanced Video Codec
Профиль формата : [email protected]
Параметр CABAC формата : Да
Параметр ReFrames формата : 9 кадров
Идентификатор кодека : V_MPEG4/ISO/AVC
Продолжительность : 1 ч. 38 м.
Битрейт : 12,0 Мбит/сек
Ширина : 1280 пикселей
Высота : 536 пикселей
Соотношение сторон : 2,40:1
Режим частоты кадров : Постоянный
Частота кадров : 59,880 кадров/сек
Частота кадров в оригинале : 59,940 кадров/сек
Цветовое пространство : YUV
Субдискретизация насыщенности : 4:2:0
Битовая глубина : 8 бит
Тип развёртки : Прогрессивная
Бит/(Пиксели*Кадры) : 0.292
Размер потока : 8,09 Гбайт (87%)
Библиотека кодирования : x264 core 133 r2334 a3ac64b
Настройки программы : cabac=1 / ref=9 / deblock=1:-1:-1 / analyse=0x3:0 / me=umh / subme=9 / psy=1 / psy_rd=1.00:0.00 / mixed_ref=0 / me_range=24 / chroma_me=1 / trellis=1 / 8x8dct=1 / cqm=0 / deadzone=21,11 / fast_pskip=1 / chroma_qp_offset=-2 / threads=6 / lookahead_threads=1 / sliced_threads=0 / nr=0 / decimate=1 / interlaced=0 / bluray_compat=0 / constrained_intra=0 / bframes=6 / b_pyramid=2 / b_adapt=2 / b_bias=0 / direct=3 / weightb=1 / open_gop=0 / weightp=2 / keyint=250 / keyint_min=25 / scenecut=40 / intra_refresh=0 / rc_lookahead=40 / rc=2pass / mbtree=1 / bitrate=12000 / ratetol=1.0 / qcomp=0.60 / qpmin=0 / qpmax=69 / qpstep=4 / cplxblur=20.0 / qblur=0.5 / ip_ratio=1.40 / aq=1:1.00
Default : Да
Forced : Нет
Аудио
Идентификатор : 2
Формат : DTS
Формат/Информация : Digital Theater Systems
Профиль формата : ES
Режим : 16
Параметр Endianness формата : Big
Идентификатор кодека : A_DTS
Продолжительность : 1 ч. 38 м.
Вид битрейта : Постоянный
Битрейт : 1509 Кбит/сек
Каналы : 6 каналов
Расположение каналов : Front: L C R, Side: L R, LFE
Частота : 48,0 КГц
Битовая глубина : 24 бит
Метод сжатия : С потерями
Задержка видео : 11 мс.
Размер потока : 1,04 Гбайт (11%)
Заголовок : Dub
Язык : Russian
Default : Нет
Forced : Нет
Меню
00:00:00.000 : ru:Где-то там
00:03:36.299 : ru:Дорога домой
00:05:49.683 : ru:Грузовик ВАЛЛ-И
00:09:18.766 : ru:День за работой
00:12:03.431 : ru:Приход Евы
00:17:56.450 : ru:Конфронтация
00:19:33.380 : ru:Жизнь в розовом
00:21:10.144 : ru:Суд
00:23:46.800 : ru:Любимые вещи ВАЛЛ-И
00:29:18.006 : ru:Плохой день
00:31:25.091 : ru:Пора идти
00:33:27.756 : ru:Космическое путешествие
00:35:20.118 : ru:Стыковка
00:38:49.535 : ru:Добро пожаловать на Аксиому
00:42:53.529 : ru:Мост
00:43:31.651 : ru:Капитан на борту
00:51:08.941 : ru:Земля
00:52:07.583 : ru:Ремонтные работы
00:54:47.451 : ru:Роботы проказники
00:56:05.779 : ru:Выход
00:57:58.016 : ru:Скорость
00:58:41.184 : ru:Космическая прогулка
01:02:14.898 : ru:На борту
01:03:21.047 : ru:Нужен только миг
01:05:49.695 : ru:Код A113
01:11:44.884 : ru:Мусор
01:15:54.216 : ru:Ева спешит на помощь
01:19:22.799 : ru:Капитан против авто
01:20:14.684 : ru:Все на борт
01:24:14.090 : ru:Вечер встречи
01:25:45.765 : ru:Снова вместе
01:30:17.495 : ru:Титры

Скриншоты:

Яндекс.Метрика
Рейтинг@Mail.ru