Теория заговора / Conspiracy Theory (Ричард Доннер / Richard Donner) [1997 г., боевик, триллер, мелодрама, криминал, детектив, BDRip-AVC, 720p] Dub + MVO (Мост-Видео, Варус-Видео, РТР) + AVO (Гаврилов, Живов, Визгунов, Кашкин) + Sub (Rus, Eng)

 

Создавать темы 15-Июн-2014 15:00

-Теория заговора / Conspiracy Theory-- Год выпуска: 1997
Производство: США, Warner Bros
Жанр: боевик, триллер, мелодрама, криминал, детектив
Продолжительность: 02:15:19-Перевод: Профессиональный (полное дублирование) Мост-Видео
Перевод 2: Профессиональный (многоголосый, закадровый) Варус-Видео
Перевод 3: Профессиональный (многоголосый, закадровый) РТР
Перевод 4: Авторский (одноголосый, закадровый) Гаврилов
Перевод 5: Авторский (одноголосый, закадровый) Живов
Перевод 6: Авторский (одноголосый, закадровый) Визгунов
Перевод 7: Авторский (одноголосый, закадровый) Кашкин
Субтитры: русские, английские-Режиссер: Ричард Доннер / Richard Donner
В ролях: Мэл Гибсон, Джулия Робертс, Патрик Стюарт, Силк Козарт, Стивен Кэхэн, Терри Александер, Фрэнк Джон Хьюз, Мэк Дэвис, Джером Прэйдон, Рамер Уиллис, Гэри Басараба, Сайобхан Фэллон, Кимберли Флинн-Описание: Джерри Флетчер долгое время производит на зрителя впечатление шизофреника, помешанного на заговорах. Он работает таксистом и влюблен в юристку Элис Саттон из Министерства юстиции. Обладая массой информации из газет, ее он уже просто "достал" своими визитами с дичайшими предположениями о возможном покушении на президента с использованием землетрясения в Турции, например. Но через некоторое время действие принимает столь серьезный поворот, что, начинаешь думать о том, какими гениальными бывают шизофреники. А когда в сюжете появляется зловещий доктор Джонас, которому во время пыток и допроса Флетчер надкусывает нос и успешно сбегает, за событиями начинаешь следить с постепенно повышающейся температурой собственного тела. Постепенно в "игру" включаются ФБР, ЦРУ и еще какие-то сверхсекретные, отлично обученные и экипированные лица. Но и Флетчер поражает своей подготовленностью и способностью всех оставлять в дураках. Вот тебе и шизофреник!..- - -Качество видео: BDRip-AVC
Контейнер: MKV
Стандарт разрешения: 720p
Видео кодек: H.264
Аудио кодек: AC3
Видео: MPEG4 Video (H264) 1280x536 (2.40:1); 3710 Kbps; 23,976 fps; 0.226 bpp
Аудио : 48 kHz, AC3, 3/2 (L,C,R,l,r) + LFE ch, ~640 kbps avg - Дубляж
Аудио #2: 48 kHz, AC3, 2/0 (L,R) ch, ~256 kbps avg - Варус
Аудио #3: 48 kHz, AC3, 2/0 (L,R) ch, ~192 kbps avg - РТР
Аудио #4: 48 kHz, AC3, 3/2 (L,C,R,l,r) + LFE ch, ~384 kbps avg - Гаврилов
Аудио #5: 48 kHz, AC3, 3/2 (L,C,R,l,r) + LFE ch, ~384 kbps avg - Живов
Аудио #6: 48 kHz, AC3, 3/2 (L,C,R,l,r) + LFE ch, ~384 kbps avg - Визгунов
Аудио #7: 48 kHz, AC3, 3/2 (L,C,R,l,r) + LFE ch, ~384 kbps avg - Кашкин
Формат субтитров: softsub (SRT)

Доп. информация

Автор рипа:
За исходник видео Blu-ray CEE 1080p, и дубляж спасибо crazy_gringo (ХДКлуб)
Остальные дороги из собственной коллекции (ранее найдены в сети)

Media Info

Общее
Уникальный идентификатор : 198541397623888294157682820804459550509 (0x955DAEAA746E27089415C6990B22D72D)
Полное имя : G:не розданное\Теория заговора (Conspiracy Theory, 1997, BDrip, 720p) dub-2pm-Gavrilov-Jivov-Vizgunov-Kashkin.mkv
Формат : Matroska
Версия формата : Version 2
Размер файла : 5,92 Гбайт
Продолжительность : 2 ч. 15 м.
Общий поток : 6267 Кбит/сек
Название фильма : rip by Gross
Дата кодирования : UTC 2014-04-10 07:31:24
Программа кодирования : mkvmerge v4.7.0 ('Just Like You Imagined') сборка от Apr 21 2011 01:13:14
Библиотека кодирования : libebml v1.2.0 + libmatroska v1.1.0
Видео
Идентификатор : 1
Формат : AVC
Формат/Информация : Advanced Video Codec
Профиль формата : [email protected]
Параметр CABAC формата : Да
Параметр ReFrames формата : 9 кадров
Идентификатор кодека : V_MPEG4/ISO/AVC
Продолжительность : 2 ч. 15 м.
Битрейт : 3710 Кбит/сек
Ширина : 1280 пикселей
Высота : 536 пикселей
Соотношение сторон : 2,40:1
Режим частоты кадров : Постоянный
Частота кадров : 23,976 кадра/сек
Цветовое пространство : YUV
Субдискретизация насыщенности : 4:2:0
Битовая глубина : 8 бит
Тип развёртки : Прогрессивная
Бит/(Пиксели*Кадры) : 0.226
Размер потока : 3,51 Гбайт (59%)
Библиотека кодирования : x264 core 130 r2273 b3065e6
Настройки программы : cabac=1 / ref=9 / deblock=1:-3:-3 / analyse=0x3:0x133 / me=umh / subme=11 / psy=1 / psy_rd=1.00:0.05 / mixed_ref=1 / me_range=24 / chroma_me=1 / trellis=2 / 8x8dct=1 / cqm=0 / deadzone=21,11 / fast_pskip=0 / chroma_qp_offset=-3 / threads=2 / lookahead_threads=1 / sliced_threads=0 / nr=0 / decimate=0 / interlaced=0 / bluray_compat=0 / constrained_intra=0 / bframes=9 / b_pyramid=2 / b_adapt=2 / b_bias=0 / direct=1 / weightb=1 / open_gop=0 / weightp=2 / keyint=250 / keyint_min=23 / scenecut=40 / intra_refresh=0 / rc_lookahead=40 / rc=crf / mbtree=1 / crf=18.0 / qcomp=0.60 / qpmin=0 / qpmax=69 / qpstep=4 / ip_ratio=1.40 / aq=1:1.00
Язык : English
Default : Да
Forced : Нет
Аудио #1
Идентификатор : 2
Формат : AC-3
Формат/Информация : Audio Coding 3
Расширение режима : CM (complete main)
Параметр Endianness формата : Big
Идентификатор кодека : A_AC3
Продолжительность : 2 ч. 15 м.
Вид битрейта : Постоянный
Битрейт : 640 Кбит/сек
Каналы : 6 каналов
Расположение каналов : Front: L C R, Side: L R, LFE
Частота : 48,0 КГц
Битовая глубина : 16 бит
Метод сжатия : С потерями
Размер потока : 620 Мбайт (10%)
Заголовок : dub (Мост-Видео)
Язык : Russian
Default : Да
Forced : Да
Аудио #2
Идентификатор : 3
Формат : AC-3
Формат/Информация : Audio Coding 3
Расширение режима : CM (complete main)
Параметр Endianness формата : Big
Идентификатор кодека : A_AC3
Продолжительность : 2 ч. 15 м.
Вид битрейта : Постоянный
Битрейт : 256 Кбит/сек
Каналы : 2 канала
Расположение каналов : Front: L R
Частота : 48,0 КГц
Битовая глубина : 16 бит
Метод сжатия : С потерями
Задержка видео : 20 мс.
Размер потока : 248 Мбайт (4%)
Заголовок : pm (Варус-Видео)
Язык : Russian
Default : Нет
Forced : Нет
Аудио #3
Идентификатор : 4
Формат : AC-3
Формат/Информация : Audio Coding 3
Расширение режима : CM (complete main)
Параметр Endianness формата : Big
Идентификатор кодека : A_AC3
Продолжительность : 2 ч. 15 м.
Вид битрейта : Постоянный
Битрейт : 192 Кбит/сек
Каналы : 2 канала
Расположение каналов : Front: L R
Частота : 48,0 КГц
Битовая глубина : 16 бит
Метод сжатия : С потерями
Задержка видео : 20 мс.
Размер потока : 186 Мбайт (3%)
Заголовок : pm (РТР)
Язык : Russian
Default : Нет
Forced : Нет
Аудио #4
Идентификатор : 5
Формат : AC-3
Формат/Информация : Audio Coding 3
Расширение режима : CM (complete main)
Параметр Endianness формата : Big
Идентификатор кодека : A_AC3
Продолжительность : 2 ч. 15 м.
Вид битрейта : Постоянный
Битрейт : 384 Кбит/сек
Каналы : 6 каналов
Расположение каналов : Front: L C R, Side: L R, LFE
Частота : 48,0 КГц
Битовая глубина : 16 бит
Метод сжатия : С потерями
Задержка видео : 20 мс.
Размер потока : 372 Мбайт (6%)
Заголовок : A1 (Гаврилов)
Язык : Russian
Default : Нет
Forced : Нет
Аудио #5
Идентификатор : 6
Формат : AC-3
Формат/Информация : Audio Coding 3
Расширение режима : CM (complete main)
Параметр Endianness формата : Big
Идентификатор кодека : A_AC3
Продолжительность : 2 ч. 15 м.
Вид битрейта : Постоянный
Битрейт : 384 Кбит/сек
Каналы : 6 каналов
Расположение каналов : Front: L C R, Side: L R, LFE
Частота : 48,0 КГц
Битовая глубина : 16 бит
Метод сжатия : С потерями
Задержка видео : 20 мс.
Размер потока : 372 Мбайт (6%)
Заголовок : A1 (Живов)
Язык : Russian
Default : Нет
Forced : Нет
Аудио #6
Идентификатор : 7
Формат : AC-3
Формат/Информация : Audio Coding 3
Расширение режима : CM (complete main)
Параметр Endianness формата : Big
Идентификатор кодека : A_AC3
Продолжительность : 2 ч. 15 м.
Вид битрейта : Постоянный
Битрейт : 384 Кбит/сек
Каналы : 6 каналов
Расположение каналов : Front: L C R, Side: L R, LFE
Частота : 48,0 КГц
Битовая глубина : 16 бит
Метод сжатия : С потерями
Задержка видео : 20 мс.
Размер потока : 372 Мбайт (6%)
Заголовок : A1 (Визгунов)
Язык : Russian
Default : Нет
Forced : Нет
Аудио #7
Идентификатор : 8
Формат : AC-3
Формат/Информация : Audio Coding 3
Расширение режима : CM (complete main)
Параметр Endianness формата : Big
Идентификатор кодека : A_AC3
Продолжительность : 2 ч. 15 м.
Вид битрейта : Постоянный
Битрейт : 192 Кбит/сек
Каналы : 2 канала
Расположение каналов : Front: L R
Частота : 48,0 КГц
Битовая глубина : 16 бит
Метод сжатия : С потерями
Задержка видео : 20 мс.
Размер потока : 186 Мбайт (3%)
Заголовок : A1 (Кашкин)
Язык : Russian
Default : Нет
Forced : Нет
Текст #1
Идентификатор : 9
Формат : UTF-8
Идентификатор кодека : S_TEXT/UTF8
Идентификатор кодека/Информация : UTF-8 Plain Text
Язык : Russian
Default : Да
Forced : Нет
Текст #2
Идентификатор : 10
Формат : UTF-8
Идентификатор кодека : S_TEXT/UTF8
Идентификатор кодека/Информация : UTF-8 Plain Text
Язык : English
Default : Нет
Forced : Нет

log x.264

x264 [info]: frame I:1342  Avg QP:15.33  size:109937
x264 [info]: frame P:41801 Avg QP:19.63 size: 38923
x264 [info]: frame B:151520 Avg QP:21.80 size: 13957
x264 [info]: consecutive B-frames: 2.0% 2.4% 6.1% 23.7% 18.0% 32.3% 7.5% 5.4% 1.8% 0.9%
x264 [info]: mb I I16..4: 6.5% 78.2% 15.3%
x264 [info]: mb P I16..4: 1.2% 10.4% 1.1% P16..4: 32.7% 38.6% 12.0% 1.2% 0.1% skip: 2.7%
x264 [info]: mb B I16..4: 0.1% 1.2% 0.1% B16..8: 39.3% 20.3% 3.4% direct: 5.6% skip:30.0% L0:44.8% L1:45.1% BI:10.1%
x264 [info]: 8x8 transform intra:82.2% inter:67.6%
x264 [info]: coded y,uvDC,uvAC intra: 86.9% 87.9% 74.4% inter: 29.3% 32.2% 19.6%
x264 [info]: i16 v,h,dc,p: 38% 17% 7% 38%
x264 [info]: i8 v,h,dc,ddl,ddr,vr,hd,vl,hu: 11% 7% 6% 10% 15% 14% 14% 12% 12%
x264 [info]: i4 v,h,dc,ddl,ddr,vr,hd,vl,hu: 12% 8% 5% 9% 15% 15% 13% 11% 12%
x264 [info]: i8c dc,h,v,p: 47% 19% 15% 20%
x264 [info]: Weighted P-Frames: Y:6.8% UV:4.4%
x264 [info]: ref P L0: 42.1% 8.7% 19.5% 7.7% 6.8% 4.8% 4.5% 2.6% 2.8% 0.5% 0.0%
x264 [info]: ref B L0: 70.7% 12.9% 6.5% 3.6% 2.6% 2.2% 1.2% 0.4%
x264 [info]: ref B L1: 92.4% 7.6%
x264 [info]: kb/s:3832.21

Скриншоты

Яндекс.Метрика
Рейтинг@Mail.ru