[ Сегодня на трекере фрилич! Идет свободное скачивание без начисления Download ]

Эволюция будущего / (Сергей Краус) [2014 г., документальный, DVB]

 

Создавать темы 11-Июн-2014 17:13

-Эволюция будущего-- Производство: Россия
Жанр: документальный
Год выпуска: 2014 г.
Продолжительность: 00:43:35
Перевод: Не требуется
Оригинальный аудиопоток: русский
Режиссер: Сергей Краус-Описание: Автомобили, управляемые силой мысли. Поезда и космические лифты, с огромной скоростью курсирующие по магнитным полям. Биологические компьютеры, вживленные в человеческие тела. Люди, освоившие левитацию и парящие над землей. Победа над смертельно опасными заболеваниями, возможность жить неограниченно долго, не старея. Это не сюжет фантастического романа, это – описание нашего будущего, причем самого ближайшего. Ученые предполагают, что до 2050 года наступит сингулярность – момент фантастического ускорения технического прогресса.-Качество видео: DVB
Контейнер: TS/M2TS
Видео кодек: AVC
Аудио кодек: MP3
Видео: AVC, аноморф. 720х576, 4:3, 1183 Кбит/сек, 25 fps
Аудио: MPEG Audio, 160 Кбит/сек, 48 КГц, 2 канала
Cубтитры: отсутствуют

Media Info

Формат : MPEG-TS
Размер файла : 441 Мбайт
Продолжительность : 43 м.
Режим общего битрейта : Переменный
Общий поток : 1415 Кбит/сек
Видео
Идентификатор : 1403 (0x57B)
Идентификатор меню : 403 (0x193)
Формат : AVC
Формат/Информация : Advanced Video Codec
Профиль формата : [email protected]
Параметр CABAC формата : Да
Параметр ReFrames формата : 3 кадра
Идентификатор кодека : 27
Продолжительность : 43 м.
Битрейт : 1183 Кбит/сек
Ширина : 720 пикселей
Высота : 576 пикселей
Соотношение сторон : 4:3
Частота кадров : 25,000 кадров/сек
Стандарт вещания : PAL
Цветовое пространство : YUV
Субдискретизация насыщенности : 4:2:0
Битовая глубина : 8 бит
Тип развёртки : Чересстрочная
Порядок развёртки : Верхнее поле первое
Бит/(Пиксели*Кадры) : 0.114
Размер потока : 369 Мбайт (84%)
Основные цвета : BT.601 PAL
Характеристики трансфера : BT.470 System B, BT.470 System G
Коэффициенты матрицы : BT.601
Аудио
Идентификатор : 2403 (0x963)
Идентификатор меню : 403 (0x193)
Формат : MPEG Audio
Версия формата : Version 1
Профиль формата : Layer 2
Идентификатор кодека : 4
Продолжительность : 43 м.
Вид битрейта : Постоянный
Битрейт : 160 Кбит/сек
Каналы : 2 канала
Частота : 48,0 КГц
Метод сжатия : С потерями
Задержка видео : 23 мс.
Размер потока : 49,9 Мбайт (11%)
Язык : std
Язык, дополнительно : Clean effects

Скриншоты

Яндекс.Метрика
Рейтинг@Mail.ru