[ Сегодня на трекере фрилич! Идет свободное скачивание без начисления Download ]

БИ-2 - Квартирник (акустика). Театр «Содружество актеров Таганки» [2014 г.] (Рок) [BDRip, 1080p] (17.05.2013) (Full HD)

 

Создавать темы 02-Июн-2014 20:08

-БИ-2 - Квартирник (акустика). Театр «Содружество актеров Таганки»-- Год выпуска: 2014 г.
Страна: Россия
Жанр: Рок
Режиссер: Даниил Сальхов
Студия: Firecat Films, Planeta.RU
Продолжительность: 01:32:02-Качество видео: BDRip
Контейнер: MKV
Стандарт разрешения: 1080p
Видео кодек: H.264
Аудио кодек: AAC
Видео: MPEG-4 AVC, 12800 Кбит/с, 1920x1080 (16:9), 25 fps, 0.248 bit / pix
Аудио: 48 kHz, AAC, 2 ch, 317 Кбит/с
Исполнитель: : Би-2, Шура Би-2, Лёва Би-2, Андрей Звонков, Максим Андрющенко, Борис Лифшиц, Яник Николенко-Описание: В данной раздаче представлена запись одного из «Квартирников» БИ-2 — первого московского акустического концерта, который состоялся 17 мая 2013 года в театре «Содружество актеров Таганки». Это второй из 3-х концертов (акустический), представленных в новом тройном DVD группы. В данной раздаче представлена Full HD-версия концерта. «Долой унылую телевизионщину — даешь клевое концертное видео!». Сказал Даниил Сальхов (режиссер). Именно так, в двух (хорошо, в семи) словах можно описать наш новый проект — первый в истории группы Би-2 тройной DVD. Этот год стал для нас невероятно событийным и плодотворным, в том числе и в плане концертов — впечатлениями, эмоциями и энергетикой которых мы очень хотим поделиться со всеми поклонниками Би-2. «Мы хотим вас пригласить в замечательное путешествие, в котором мы провели и проводим весь 2013 год.» Сказал Шура Би-2. Проиллюстрировать это «путешествие» каким-то одним концертом просто невозможно — слишком они разные. И по звучанию, и по общей атмосфере. Именно поэтому мы решили выпустить тройной DVD, в который войдет запись трех абсолютно не похожих между собой концертов Би-2 — музыканты предстанут в совершенно разных, но уже хорошо знакомых вам ипостасях — трех измерениях: электрическом, акустическом и с оркестром.-

Состав

Лёва Би-2 — вокал, акустическая гитара,
Шура Би-2 — вокал, акустическая гитара,
Андрей «Звон» Звонков — акустическая гитара,
Максим «Лакмус» Андрющенко — бас-гитара,
Борис Лифшиц — ударные,
Яник Николенко — флейта, фортепиано, клавишные, металлофон, перкуссия, мелодика, бэк-вокал.

Трэклист

01. Варвара
02. Девушки
03. Ёлочный сок
04. И корабль плывёт
05 Скользкие улицы
06. Молитва
07. Держаться за воздух
08. Научи меня быть счастливым
09. Теряю голову
10. Серебро
11. Реки любви
12. Достучаться до небес
13. Smile
14. Шамбала
15. Ангелы
16. Моя любовь
17. Мой рок-н-ролл (+ представление участников группы)

Media Info

General
Complete name : W:\Bi-2.kvartirnik.Sodruzhestvo na taganke.mkv
Format : MPEG-4
Format profile : Base Media / Version 2
Codec ID : mp42
File size : 8.47 GiB
Duration : 1h 32mn
Overall bit rate : 13.2 Mbps
Encoded date : UTC 2014-05-28 08:49:52
Tagged date : UTC 2014-05-28 09:00:14
©TIM : 01:00:00:00
©TSC : 25
©TSZ : 1
Video
ID : 1
Format : AVC
Format/Info : Advanced Video Codec
Format profile : [email protected]
Format settings, CABAC : Yes
Format settings, ReFrames : 3 frames
Codec ID : avc1
Codec ID/Info : Advanced Video Coding
Duration : 1h 32mn
Bit rate mode : Variable
Bit rate : 12.8 Mbps
Width : 1 920 pixels
Height : 1 080 pixels
Display aspect ratio : 16:9
Frame rate mode : Variable
Frame rate : 25.000 fps
Minimum frame rate : 25.000 fps
Maximum frame rate : 25.025 fps
Standard : PAL
Color space : YUV
Chroma subsampling : 4:2:0
Bit depth : 8 bits
Scan type : Progressive
Bits/(Pixel*Frame) : 0.248
Stream size : 8.26 GiB (98%)
Language : English
Encoded date : UTC 2014-05-28 08:49:52
Tagged date : UTC 2014-05-28 08:49:52
Color primaries : BT.709-5, BT.1361, IEC 61966-2-4, SMPTE RP177
Transfer characteristics : BT.709-5, BT.1361
Matrix coefficients : BT.709-5, BT.1361, IEC 61966-2-4 709, SMPTE RP177
Audio
ID : 2
Format : AAC
Format/Info : Advanced Audio Codec
Format version : Version 4
Format profile : LC
Format settings, SBR : No
Codec ID : 40
Duration : 1h 32mn
Bit rate mode : Variable
Bit rate : 317 Kbps
Maximum bit rate : 418 Kbps
Channel(s) : 2 channels
Channel positions : Front: L R
Sampling rate : 48.0 KHz
Stream size : 209 MiB (2%)
Language : English
Encoded date : UTC 2014-05-28 08:49:52
Tagged date : UTC 2014-05-28 08:49:52

Скриншоты

Оф.сайт

http://bdva.ru/
Яндекс.Метрика
Рейтинг@Mail.ru