Лесной патруль / Pelle Politibil på sporet (Расмус А. Сивертсен / Rasmus A. Sivertsen) [2013 г., Мультфильм, WEB-DL] Dub

 

Создавать темы 01-Июн-2014 17:12

-Лесной патруль / Pelle Politibil på sporet- Производство: Норвегия, Neofilm
Год выпуска: 2013 г.
Жанр: Мультфильм
Продолжительность: 01:06:54
Мировая премьера: 3 мая 2013
Российская премьера: 15 мая 2014, «Ракета Релизинг»-Перевод: Профессиональный (полное дублирование)-Режиссер: Расмус А. Сивертсен / Rasmus A. Sivertsen
В ролях: Гард Б. Эйдсвольд, Лене Конгсвик Йохансен, Эмили Нордли, Хеге Шёен, Роберт Столтенберг, Бьорн Сундквист, Пернилла Серенсен-Описание: Из национального заповедника похищают главное его достояние — орла редкой породы. Но при похищении удается спастись его птенцу. Патрульная машина Плодди вместе с верными друзьями спешит на помощь. Им предстоит выяснить, кто же этот коварный похититель, а заодно и присмотреть за малышом, пока не найдется его мама.- -Качество видео: WEB-DL
Контейнер: AVI
Видео кодек: XviD
Аудио кодек: AC3
Видео: 720x400 (1.80:1), 25 fps, XviD build 50 ~2015 kbps avg, 0.28 bit/pixel
Аудио: 48 kHz, AC3 Dolby Digital, 2/0 (L,R) ch, ~448 kbps [Rus, Dub]
Аудио #2: 48 kHz, AC3 Dolby Digital, 2/0 (L,R) ch, ~448 kbps [Rus, Dub]
Cубтитры: отсутствуют

Media Info

General
Complete name : D:\Lesnoy.Patrul.2013.D.WEBRip.1400Mb.avi
Format : AVI
Format/Info : Audio Video Interleave
File size : 1.37 GiB
Duration : 1h 6mn
Overall bit rate : 2 927 Kbps
Writing application : VirtualDubMod 1.5.10.2 (build 2540/release)
Writing library : VirtualDubMod build 2540/release
Video
ID : 0
Format : MPEG-4 Visual
Format profile : Advanced [email protected]
Format settings, BVOP : 2
Format settings, QPel : No
Format settings, GMC : No warppoints
Format settings, Matrix : Custom
Codec ID : XVID
Codec ID/Hint : XviD
Duration : 1h 6mn
Bit rate : 2 017 Kbps
Width : 720 pixels
Height : 400 pixels
Display aspect ratio : 16:9
Frame rate : 25.000 fps
Color space : YUV
Chroma subsampling : 4:2:0
Bit depth : 8 bits
Scan type : Progressive
Compression mode : Lossy
Bits/(Pixel*Frame) : 0.280
Stream size : 965 MiB (69%)
Writing library : XviD 1.2.1 (UTC 2008-12-04)
Audio #1
ID : 1
Format : AC-3
Format/Info : Audio Coding 3
Mode extension : CM (complete main)
Format settings, Endianness : Big
Codec ID : 2000
Duration : 1h 6mn
Bit rate mode : Constant
Bit rate : 448 Kbps
Channel(s) : 2 channels
Channel positions : Front: L R
Sampling rate : 48.0 KHz
Bit depth : 16 bits
Compression mode : Lossy
Stream size : 214 MiB (15%)
Alignment : Split accross interleaves
Interleave, duration : 40 ms (1.00 video frame)
Interleave, preload duration : 500 ms
Audio #2
ID : 2
Format : AC-3
Format/Info : Audio Coding 3
Mode extension : CM (complete main)
Format settings, Endianness : Big
Codec ID : 2000
Duration : 1h 6mn
Bit rate mode : Constant
Bit rate : 448 Kbps
Channel(s) : 2 channels
Channel positions : Front: L R
Sampling rate : 48.0 KHz
Bit depth : 16 bits
Compression mode : Lossy
Stream size : 214 MiB (15%)
Alignment : Split accross interleaves
Interleave, duration : 40 ms (1.00 video frame)
Interleave, preload duration : 500 ms

Скриншоты

Яндекс.Метрика
Рейтинг@Mail.ru