[ Сегодня на трекере фрилич! Идет свободное скачивание без начисления Download ]

Mylène Farmer: Stade de France [2009 г.] (pop, dance, electronic) [BDRip, 1080p]

 

Создавать темы 31-Май-2014 05:55

-Mylène Farmer: Stade de France-- Год выпуска: 2009 г.
Страна: Франция
Жанр: pop, dance, electronic
Режиссер: Франсуа Ансс / François Hanss
Студия: Universal Music
Продолжительность: 02:19:22
- -Качество видео: BDRip
Контейнер: MKV
Стандарт разрешения: 1080p
Видео кодек: H.264/AVC
Аудио кодек: DTS
Видео: 1920x1080, 25.000 fps, ~11.1 Mbps avg, Bits/(Pixel*Frame) 0.215
Аудио: 48,0 KHz, 6 ch (Front: L C R, Side: L R, LFE), ~1510 Kbps avg
Аудио #2: 48,0 KHz, 2 ch (Front: L R), ~1510 Kbps avg-Описание: Грандиозное по масштабности концертное выступление французской поп дивы Милен Фармер прошедшее в Париже на стадионе Stade de France. Два завершающих турне концерта и 160 тысяч человек, которые пришли посмотреть на шоу с по настоящему голливудским размахом спецэффектов и с присуще французскому темпераменту накалу чувств. Огромная сцена располагающая на себе тонны света, звука и декораций. Звучание самых лучших песен за более чем 25 лет карьеры сопровождающихся великолепно поставленной хореографией и полной открытостью чувств самой скрытной французской певицы. Слезы и радость Милен Фармер вызывающие бурю эмоций в ответ от предано любящих ее поклонников.
-

Трэклист

1. Avant la lumière
2. D`entre les morts
3. Paradis inanimé
4. L`âme-stram-gram
5. Je m`ennuie
6. Outro Haka "Je m`ennuie"
7. Appelle mon numéro
8. XXL
9. California
10. Pourvu qu`elles soient douces
11. Point de suture
12. Nous souviendrons nous
13. Rêver
14. Laisse le vent emporter tout
15. Ainsi soit je...
16. Interlude Avant que l'ombre
17. Libertine
18. Sans contrefaçon
19. L`instant X
20. Fuck Them All
21. Dégénération
22. C'est dans l'air
23. Désenchantée
24. Générique fin

Media Info

General
Complete name                    : J:\Uploads\Pirat.Ca\Mylene.Farmer.Stade.de.France.2009.1080p.BDRip.Fre.mkv
Format                           : Matroska
File size                        : 13.8 GiB
Duration                         : 2h 19mn
Overall bit rate                 : 14.2 Mbps
Movie name                       : Mylene Farmer - Stade de France (encoded by Constan+ine)
Encoded date                     : UTC 2010-04-23 15:53:30
Writing application              : mkvmerge v3.2.0 ('Beginnings') built on Feb 12 2010 16:46:17
Writing library                  : libebml v0.7.9 + libmatroska v0.8.1
Video
ID                               : 1
Format                           : AVC
Format/Info                      : Advanced Video Codec
Format profile                   : [email protected]
Format settings, CABAC           : Yes
Format settings, ReFrames        : 4 frames
Muxing mode                      : Container [email protected]
Codec ID                         : V_MPEG4/ISO/AVC
Duration                         : 2h 19mn
Bit rate                         : 11.1 Mbps
Width                            : 1 920 pixels
Height                           : 1 080 pixels
Display aspect ratio             : 16:9
Frame rate                       : 25.000 fps
Color space                      : YUV
Chroma subsampling               : 4:2:0
Bit depth                        : 8 bits
Scan type                        : Progressive
Bits/(Pixel*Frame)               : 0.215
Stream size                      : 10.6 GiB (77%)
Writing library                  : x264 core 93 r1542 5b86182
Encoding settings                : cabac=1 / ref=4 / deblock=1:-2:-2 / analyse=0x3:0x133 / me=umh / subme=10 / psy=1 / psy_rd=1.00:0.00 / mixed_ref=1 / me_range=48 / chroma_me=1 / trellis=2 / 8x8dct=1 / cqm=0 / deadzone=21,11 / fast_pskip=0 / chroma_qp_offset=-2 / threads=4 / sliced_threads=0 / nr=0 / decimate=1 / interlaced=0 / constrained_intra=0 / bframes=8 / b_pyramid=2 / b_adapt=2 / b_bias=0 / direct=3 / wpredb=1 / wpredp=2 / keyint=250 / keyint_min=25 / scenecut=40 / intra_refresh=0 / rc_lookahead=0 / rc=2pass / mbtree=0 / bitrate=11150 / ratetol=1.0 / qcomp=0.75 / qpmin=10 / qpmax=51 / qpstep=4 / cplxblur=20.0 / qblur=0.5 / vbv_maxrate=50000 / vbv_bufsize=50000 / ip_ratio=1.40 / pb_ratio=1.30 / aq=2:0.80 / nal_hrd=none
Language                         : English
Audio #1
ID                               : 2
Format                           : DTS
Format/Info                      : Digital Theater Systems
Codec ID                         : A_DTS
Duration                         : 2h 19mn
Bit rate mode                    : Constant
Bit rate                         : 1 510 Kbps
Channel(s)                       : 6 channels
Channel positions                : Front: L C R, Side: L R, LFE
Sampling rate                    : 48.0 KHz
Bit depth                        : 24 bits
Stream size                      : 1.47 GiB (11%)
Title                            : DTS 5.1
Language                         : French
Audio #2
ID                               : 3
Format                           : DTS
Format/Info                      : Digital Theater Systems
Codec ID                         : A_DTS
Duration                         : 2h 19mn
Bit rate mode                    : Constant
Bit rate                         : 1 510 Kbps
Channel(s)                       : 2 channels
Channel positions                : Front: L R
Sampling rate                    : 48.0 KHz
Bit depth                        : 24 bits
Stream size                      : 1.47 GiB (11%)
Title                            : DTS 2.0
Language                         : French
Menu
00:00:00.000                     : en:Avant la lumiere
00:01:07.760                     : en:D`entre les morts
00:06:03.280                     : en:Paradis inanime
00:10:45.400                     : en:L`ame-stram-gram
00:17:02.360                     : en:Je m`ennuie
00:21:26.760                     : en:Outro Haka "Je m`ennuie"
00:24:09.000                     : en:Appelle mon numero
00:29:28.280                     : en:XXL
00:35:34.440                     : en:California
00:40:33.800                     : en:Pourvu qu`elles soient douces
00:45:32.320                     : en:Point de suture
00:53:22.400                     : en:Nous souviendrons nous
00:59:39.800                     : en:Rever
01:08:32.200                     : en:Laisse le vent emporter tout
01:13:54.440                     : en:Ainsi soit je...
01:20:03.680                     : en:Interlude "Avant que l'ombre..."
01:25:35.000                     : en:Libertine
01:31:08.400                     : en:Sans contrefacon
01:37:14.400                     : en:L`instant X
01:42:10.000                     : en:Fuck Them All
01:47:02.600                     : en:Degeneration
01:54:30.200                     : en:C'est dans l'air
02:02:35.200                     : en:Desenchantee
02:13:17.000                     : en:Generique

Скриншоты

Создавать темы 13-Фев-2015 18:26 (спустя 8 месяцев 13 дней)

Олег дай Фармер посмотреть , хоть одним глазком :)
Яндекс.Метрика
Рейтинг@Mail.ru