[ Сегодня на трекере фрилич! Идет свободное скачивание без начисления Download ]

Хочу V ВИА Гру! Выпуск №7 (2013.10.18) SATRip

 

Создавать темы 18-Окт-2013 19:13

- Хочу V ВИА Гру! Выпуск №7 (2013.10.18) SATRip - Режиссер / Телекомпания: НТВ
Русское название: Хочу V ВИА Гру!
Оригинальное название:
Год выпуска: 2013
Жанр: Тв-Шоу
Ведущий: Владимир Зеленский и Вера Брежнева
Описание:
Несколько сотен девушек будут сражаться за право стать частью культовой группы. 6 сентября нас ждут первые претендентки, первые слезы и первые победы в первом выпуске талант-шоу «Хочу V ВИА Гру!».
На НТВ — самый успешный русскоязычный музыкальный проект последнего десятилетия «Хочу V ВИА Гру!»
Не так давно миллионы поклонников «ВИА Гры» узнали, что коллектив прекратил существование. Однако, как выяснилось, лишь для того, чтобы открыть новую страницу своей истории.
На НТВ стартует новое масштабное талант-шоу «Хочу V ВИА Гру!», где на глазах у миллионов телезрителей на всем постсоветском пространстве будет формироваться новый состав легендарной группы. Авторы идеи – композитор и продюсер Константин Меладзе и украинский клипмейкер Алан Бадоев, который также выступает в роли режиссера проекта.
Впервые шанс побороться за участие в суперуспешном коллективе получат самые обыкновенные девушки, а окончательное решение, кому достанется место в группе, примут зрители.
Несколько тысяч претенденток из четырех стран – России, Украины, Белоруссии и Казахстана – уже прошли ряд испытаний, но впереди их ждет финальный кастинг. Главным судьей выступит лично Константин Меладзе. В команде его помощников-экспертов — актер Игорь Верник и экс-участницы «ВИА Гры» Альбина Джанабаева, Алена Винницкая, Анна Седокова, Надежда Мейхер, Меседа Багаудинова и Санта Димопулос.
После всех кастингов шесть бывших участниц группы станут наставницами для претенденток в «ВИА Гру». У каждой из экс-солисток будет свое трио, с которым нужно будет постичь искусство выступления на сцене, подобрать репертуар и поработать над сценическим образом.
Ведущие шоу – актер и продюсер Владимир Зеленский и бывшая участница коллектива Вера Брежнева — познакомят зрителей с участницами проекта и будут поддерживать каждую из них на пути к победе. Ведь «Хочу V ВИА Гру!» – не просто развлекательное шоу, это проект, который приоткроет закулисье шоу-бизнеса, откровенно рассказывая о том, как из простых девушек создают мегазвезд!
Продолжительность: ~ 01:29:43
Видеокодек: XviD
Битрейт видео: ~1800 kb/s
Размер кадра: 720 x 448
Качество видео: SATRip
Аудиокодек: MP3, 2ch.
Битрейт аудио: 192 kb/s

MediaInfo

Формат : AVI
Формат/Информация : Audio Video Interleave
Размер файла : 1,25 Гбайт
Продолжительность : 1 ч. 29 м.
Общий поток : 2002 Кбит/сек
Библиотека кодирования : VirtualDub build 32706/release
Видео
Идентификатор : 0
Формат : MPEG-4 Visual
Профиль формата : Advanced [email protected]
Параметр BVOP формата : 2
Параметр QPel формата : Нет
Параметр GMC формата : Без точки перехода
Параметр матрицы формата : Default (MPEG)
Идентификатор кодека : XVID
Идентификатор кодека/Подсказка : XviD
Продолжительность : 1 ч. 29 м.
Битрейт : 1801 Кбит/сек
Ширина : 720 пикселей
Высота : 448 пикселей
Соотношение сторон : 1,607
Частота кадров : 25,000 кадров/сек
Цветовое пространство : YUV
Субдискретизация насыщенности : 4:2:0
Битовая глубина : 8 бит
Тип развёртки : Прогрессивная
Метод сжатия : С потерями
Бит/(Пиксели*Кадры) : 0.223
Размер потока : 1,13 Гбайт (90%)
Библиотека кодирования : XviD 1.2.1 (UTC 2008-12-04)
Аудио
Идентификатор : 1
Формат : MPEG Audio
Версия формата : Version 1
Профиль формата : Layer 3
Режим : Joint stereo
Идентификатор кодека : 55
Идентификатор кодека/Подсказка : MP3
Продолжительность : 1 ч. 29 м.
Вид битрейта : Постоянный
Битрейт : 192 Кбит/сек
Каналы : 2 канала
Частота : 48,0 КГц
Метод сжатия : С потерями
Размер потока : 123 Мбайт (10%)
Выравнивание : Разделение по промежуткам
Продолжительность промежутка : 40 мс. (1,00 видеокадр)
Время предзагрузки промежутка : 500 мс.
Библиотека кодирования : LAME3.99r
Настройки программы : -m j -V 4 -q 2 -lowpass 18.6 -b 192

Скриншоты


_________________
Подпись отключена за нарушение правил форума
Яндекс.Метрика
Рейтинг@Mail.ru