Мы все отправимся в рай / Nous irons tous au paradis (1977) BDRip [H.264]

 

Создавать темы 13-Май-2014 05:35

-Мы все отправимся в рай / Nous irons tous au paradis (1977) BDRip [H.264] - Год выпуска: 1977
Жанр: Комедия
Производство: Франция / Films de la Gu�ville, Gaumont International
Перевод: Многоголосый закадровый, канал "Россия"
Субтитры: Отсутствуют
Описание фильма:
Продолжение фильма "И слоны бывают неверны" (Un �l�phant �a trompe �norm�ment). Четверка главных героев по-прежнему вместе, а все их проблемы по-прежнему вертятся вокруг женщин!
Режиссер: Ив Робер
Сценарий: Жан-Лу Дабади, Ив Робер
Продюсер: Ален Пуаре, Ив Робер
Композитор: Владимир Косма
Актеры: Жан Рошфор, Клод Брассёр, Ги Бедос, Виктор Лану, Даниэль Делорм, Марта Виллалонга, Дженни Арассе, Жозиан Баласко, Энн-Мари Бло, Элизабет Маргони
Продолжительность: 01:51:29
Качество видео: BDRip

Дата мировой премьеры: 9 ноября 1977
Видеокодек: MPEG-4 AVC/H.264
Битрейт видео: ~2055 Кбит/сек
Размер кадра: 960x576
Аудиокодек: AC3 2.0
Битрейт аудио: 192 Кбит/сек

Реценция с кинопоиска от Electro-synth man:

И снова «И слоны бывают неверны».
В очередной раз гений режиссёра Ива Робера проявляется во всей красе ! Спустя год после своего маленького, но необычайно приятного шедевра «И слоны бывают неверны», он снимает продолжение — «Мы все отправимся в рай»,которое ни сколько, ни на ёту не уступает по юмору, глубинной ниточке, психологическому воздействию первому фильму.
И хотя сюжет по прежнему неизменно и безукоризненно крутится вокруг мужской и женской неверности, однако «повторённые» штампы фабулы «Слонов» нисколько не раздражают глаз зрителя, они заставляют во второй раз болеть и глубоко переживать над проблемами, любовными поисками, внутренними притязаниями и приключениями бессменной четвёрки главный героев, четырёх мужчин в возрасте, с которыми вечно происходят непонятные несуразности, глупые происшествия, необычные курьёзы и конечно же взаимоотношения с противоположным полом.
Курс, которому несменно последовал Робер в первом фильме, очень хорошо удался и здесь, лента поставлена и реализована восхитительно, гениальное сценарное сотрудничество Робера и Жана-Лу Дабади, по сути сделавшими первый фильм вместе, нашёл отличное воплощение и в продолжении, вместе они сотворили первый фильм, вместе они воплотили и второй с блеском, иронией, намёком на язвительность первого фильма и некую сюрреалистичность продолжения.
Если в первом фильме Робер практически без снисхождения, довольно грубовато, хотя и несколько иронично, потоптался на осколках неверности мужской половины человечества, то в этом фильме он уделил огромное внимание и «женским хитростям»,уловкам, умелым фарсам и мастерству быть между двумя мужчинами сразу!
Увы, но в отличие от первой части, второй фильм не стал культурным феноменом, хотя на фестивале французского кино демонстрировался с успехом, и был также тепло принят зрителями. Фильм даже не получил никаких наград, хотя и был воздвигнут на номинацию премии «Сезар» по трём категориям — «Лучший фильм», «Лучший адаптированный или оригинальный сценарий» и довольно странной «Лучшие декорации».
В ленте очень много забавных, смешных, в какой-то мере искрометных сцен, но не стоит забывать, что это не комедия положений, где упор веселья строится на кривляниях, беготне, кутерьме. Это как собственно и первая часть, глубочайшая и необыкновенно серьёзная, почти без хохмоватых масок комедия характеров, где раскрываются черты, как глубокие, так и низменные, пороки, страсть, желания и чувства, любовь и отвращение, терпение и непримиримость.. Робер и здесь сумел блестяще обыграть «комедию без снисхождений», возможно и не такого просто пробиваемого воздействия как «Слоны», но всё же…
Жан Рошфор, сыгравший здесь Итьена Дорсау, главного героя первой, почти что мистически-трогательной истории о женщины в красном, по прежнему уникально ввёл своего персонажа в центр интриг, изворотов, слежок, недоверий и неверности. По прежнему пройдоха с глубокими, проницательными, грустными и одновременно хладнокровно-спокойными глазами Итьен оказывается в центре переполоха своей личной жизни и судьб своих товарищей, оказавшихся в сложных положениях, и по прежнему с блеском и с невозмутимым выражением лица выходящий из переделок, жизненных поворотов и превратностей судьбы ! Рошфор хорош везде, но в этих лентах он хорош вдвойне, а то и втройне!
Второй фильм ни чуть ни хуже первого роберовского шедевра «И слоны бывают неверны», та же тонкая глубина, виртуозно исполненная грань между чувствами и эмоциями, возможно и лишённая мистицизма леди в красном платье но дополненная другим мистицизмом — мистицизмом семьи и её стержня, ценностей семейной жизни. ведь самое главное в этой жизни — семья, а Робер, как никто другой сумел талантливо и доступно глубоко показать зрителю всю ценность семьи.
10 из 10

Награды:

Сезар, 1978 год
Номинации (3):
Лучший фильм
Лучший адаптированный или оригинальный сценарий
Лучшие декорации

MediaInfo:

General
Unique ID : 211121220882854336986585650890446858009 (0x9ED477D6AC1682389BC273D016A1E719)
Complete name : F:\Downloads\Мы все отправимся в рай.mkv
Format : Matroska
Format version : Version 4 / Version 2
File size : 1.75 GiB
Duration : 1h 51mn
Overall bit rate : 2 249 Kbps
Encoded date : UTC 2014-05-10 00:41:04
Writing application : mkvmerge v6.4.1 ('Omega Point') built on Sep 16 2013 22:05:10
Writing library : libebml v1.3.0 + libmatroska v1.4.1
Video
ID : 1
Format : AVC
Format/Info : Advanced Video Codec
Format profile : [url=mailto:[email protected]][email protected][/url]
Format settings, CABAC : Yes
Format settings, ReFrames : 8 frames
Codec ID : V_MPEG4/ISO/AVC
Duration : 1h 51mn
Bit rate : 2 055 Kbps
Width : 960 pixels
Height : 576 pixels
Display aspect ratio : 1.667
Frame rate mode : Constant
Frame rate : 24.000 fps
Color space : YUV
Chroma subsampling : 4:2:0
Bit depth : 8 bits
Scan type : Progressive
Bits/(Pixel*Frame) : 0.155
Stream size : 1.57 GiB (89%)
Title : Nous irons tous au paradis
Writing library : x264 core 130 r2273 b3065e6
Encoding settings : cabac=1 / ref=8 / deblock=1:0:0 / analyse=0x3:0x133 / me=umh / subme=9 / psy=1 / psy_rd=1.00:0.00 / mixed_ref=1 / me_range=32 / chroma_me=1 / trellis=2 / 8x8dct=1 / cqm=0 / deadzone=21,11 / fast_pskip=0 / chroma_qp_offset=-2 / threads=6 / lookahead_threads=1 / sliced_threads=0 / nr=0 / decimate=1 / interlaced=0 / bluray_compat=0 / constrained_intra=0 / bframes=3 / b_pyramid=2 / b_adapt=2 / b_bias=0 / direct=3 / weightb=1 / open_gop=0 / weightp=2 / keyint=250 / keyint_min=25 / scenecut=40 / intra_refresh=0 / rc_lookahead=60 / rc=2pass / mbtree=1 / bitrate=2055 / ratetol=1.0 / qcomp=0.60 / qpmin=10 / qpmax=51 / qpstep=4 / cplxblur=20.0 / qblur=0.5 / ip_ratio=1.40 / aq=1:1.00
Language : French
Default : Yes
Forced : No
Audio
ID : 2
Format : AC-3
Format/Info : Audio Coding 3
Mode extension : CM (complete main)
Format settings, Endianness : Big
Codec ID : A_AC3
Duration : 1h 51mn
Bit rate mode : Constant
Bit rate : 192 Kbps
Channel(s) : 2 channels
Channel positions : Front: L R
Sampling rate : 48.0 KHz
Bit depth : 16 bits
Compression mode : Lossy
Stream size : 153 MiB (9%)
Title : Канал "Россия"
Language : Russian
Default : Yes
Forced : No
Скриншоты:Время раздачи: с 13:00 до 01:00 по Москве (выходные круглосуточно), до 10 скачавших
Яндекс.Метрика
Рейтинг@Mail.ru