(NewAge, Meditative) Philippe de Canck - Mysteries Of Life: Land Of The Pharaohs - 1993, FLAC (image+.cue), lossless

 

Создавать темы 16-Окт-2013 15:23

Philippe de Canck / Mysteries Of Life: Land Of The Pharaohs
Жанр: NewAge, Meditative
Страна-производитель диска: Canada
Год издания: 1993
Издатель (лейбл): Madacy
Номер по каталогу: C-5648-4
Страна: France
Аудиокодек: FLAC (*.flac)
Тип рипа: image+.cue
Битрейт аудио: lossless
Продолжительность: 00:45:56
Источник (релизер): net
Наличие сканов в содержимом раздачи: да
Треклист:
1 The Book Of The Dead (1) 4:31
2 The Armies Of The Pharaohs 4:33
3 The Secret Of The Great Pyramid 2:36
4 Cleopatra 4:17
5 Nefertiti's Marriage 4:57
6 In the Garden Of Louksor 12:23
7 The Sphynx's Enigma 4:50
8 The Tears Of Isis 4:37
9 The Book Of The Dead (2) 3:12

Лог создания рипа

Exact Audio Copy V1.0 beta 3 from 29. August 2011
EAC extraction logfile from 10. April 2013, 11:22
Philippe de Canck / Mysteries Of Life - Land Of The Pharaohs
Used drive : PIONEER BD-RW BDR-206 Adapter: 0 ID: 2
Read mode : Secure
Utilize accurate stream : Yes
Defeat audio cache : Yes
Make use of C2 pointers : No
Read offset correction : 667
Overread into Lead-In and Lead-Out : No
Fill up missing offset samples with silence : Yes
Delete leading and trailing silent blocks : No
Null samples used in CRC calculations : Yes
Used interface : Native Win32 interface for Win NT & 2000
Used output format : User Defined Encoder
Selected bitrate : 1024 kBit/s
Quality : High
Add ID3 tag : Yes
Command line compressor : C:\Program Files\FLAC\flac.exe
Additional command line options : -5 -T "Artist=%artist%" -T "Title=%title%" -T "Album=%albumtitle%" -T "Date=%year%" -T "Tracknumber=%tracknr%" -T "Genre=%genre%" %source% -o %dest%
TOC of the extracted CD
Track | Start | Length | Start sector | End sector
---------------------------------------------------------
1 | 0:00.32 | 4:30.45 | 32 | 20326
2 | 4:31.02 | 4:33.10 | 20327 | 40811
3 | 9:04.12 | 2:35.48 | 40812 | 52484
4 | 11:39.60 | 4:17.32 | 52485 | 71791
5 | 15:57.17 | 4:56.60 | 71792 | 94051
6 | 20:54.02 | 12:23.03 | 94052 | 149779
7 | 33:17.05 | 4:50.35 | 149780 | 171564
8 | 38:07.40 | 4:37.10 | 171565 | 192349
9 | 42:44.50 | 3:12.30 | 192350 | 206779
Range status and errors
Selected range
Filename F:\=== VINYL RIPS ===\=== EAC===\X FRESH RIP\Philippe de Canck - Mysteries Of Life - Land Of The Pharaohs.wav
Peak level 69.9 %
Extraction speed 1.6 X
Range quality 100.0 %
Copy CRC D716A777
Copy OK
No errors occurred
AccurateRip summary
Track 1 cannot be verified as accurate (confidence 1) [C4876D3E], AccurateRip returned [A9BD2896] (AR v2)
Track 2 cannot be verified as accurate (confidence 1) [981D4C05], AccurateRip returned [29062D64] (AR v2)
Track 3 cannot be verified as accurate (confidence 1) [DBF1CCE5], AccurateRip returned [192C34BA] (AR v2)
Track 4 cannot be verified as accurate (confidence 1) [53D073A6], AccurateRip returned [3AB71B8B] (AR v2)
Track 5 cannot be verified as accurate (confidence 1) [7D4B1BEF], AccurateRip returned [53F9606F] (AR v2)
Track 6 cannot be verified as accurate (confidence 1) [5E5F35C0], AccurateRip returned [A2170766] (AR v2)
Track 7 cannot be verified as accurate (confidence 1) [97E00785], AccurateRip returned [7D1A0CA6] (AR v2)
Track 8 cannot be verified as accurate (confidence 1) [9DCB7B2F], AccurateRip returned [E916CCE5] (AR v2)
Track 9 cannot be verified as accurate (confidence 1) [F43E49E8], AccurateRip returned [3564B07A] (AR v2)
No tracks could be verified as accurate
You may have a different pressing from the one(s) in the database
End of status report
---- CUETools DB Plugin V2.1.3
[CTDB TOCID: XbWFZ.xqqQNy3NvEF2pN34JLZrk-] disk not present in database, Submit result: discs with pregaps not supported in this protocol version
==== Log checksum 4C1D38933E4D965EB3766148A13E2DAF08C35D1B0371BAE95D326E277F846A44 ====

Лог проверки качества

AUDIOCHECKER v2.0 beta (build 457) - by Dester - [email protected]
~~~~~~~~~~~~~~~~~~~~~~~~~~~~~~~~~~
-=== DO NOT EDIT THIS FILE! ===-
Path: ...\Philippe de Canck - Mysteries Of Life Land Of The Pharaohs {1993}
1 -=- Philippe de Canck - Mysteries Of Life - Land Of The Pharaohs.flac -=- CDDA (99%)
216068500
Яндекс.Метрика
Рейтинг@Mail.ru