Europe - Live At Sweden Rock – 30th Anniversary Show (2013) DVD9

 

Создавать темы 29-Апр-2014 03:30

-Europe - Live At Sweden Rock – 30th Anniversary Show (2013) DVD9- Страна: Швеция
Жанр: Hard Rock
Продолжительность: 02:25:25
Год выпуска: 2013 г.
Лейбл: MVD Visual
Описание:
7 июня 2013 года Europe вышли на сцену на своей родине Швеции по особому поводу: празднование своей 30-й годовщины в рок-музыке. Эта Шведская рок-группа праздновала это событие вместе с 30 тысячами человек на популярном Шведском Рок Фестивале, играя подборку из 28 песен собирая свои персональные любимые моменты, начиная с ранних лет вплоть до их наиболее свежих песен взятых из таких альбомов как “Last Look At Eden” и “Bag Of Bones”; для любителей статистики и раритетов некоторые из песен никогда до этого не исполнялись. В этом помпезном шоу лучших хитов присутствует также душевный момент, когда группа садится для исполнения акустической подборки, которое несёт массу ощущений клубного присутствия перед тем, как группа снова вернётся к своему известному хард-роковому амплуа. На свой праздник Европа пригласила двух особых гостей: Scott Gorham (Thin Lizzy) для версии «Jailbreak» и Michael Schenker (MSG, ex UFO и Scorpions) для одной из вечно живой хард-роковой классики от UFO «Lights Out». Список песен полон сокровищ и сюрпризов. Более двух часов и 40 минут концертной съёмки в качестве High Definition фильм также представляет материалы «За сценой» и эксклюзивные интервью с группой.
Состав:
Joey Tempest – вокал
John Norum – гитара, бэк-вокал
Mic Michaeli - клавишные, бэк-вокал
John Leven – бас-гитара
Ian Haugland – барабаны, бэк-вокал
Пресс-релиз
Качество : DVD9
Видео кодек: MPEG2
Видео: NTSC 16:9 (720x480); MPEG Video; 8000 kbps VBR; 23,976 fps
Аудио 1: AC-3; 192 kbps; 48 kHz; 2 ch
Аудио 2: AC-3; 448 kbps; 48 kHz; 6 ch

Треклист

Треклист:
01. Riches To Rags
02. Firebox
03. Not Supposed To Sing The Blues
04. Scream Of Anger
05. Superstitious
06. No Stone Unturned
07. New Love In Town
08. In The Future To Come
09. Paradize Bay
10. Girl From Lebanon
11. Prisoners In Paradise
12. Always The Pretenders
13. Drink And A Smile
14. Open Your Heart
15. Love Is Not The Enemy
16. Sign Of The Times
17. Start From The Dark
18. Wings Of Tomorrow
19. Carrie
20. Jailbreak (feat. Scott Gorham)
21. Seven Doors Hotel
22. Drum Solo
23. The Beast
24. Let The Good Times Rock
25. Lights Out (feat. Michael Schenker)
26. Rock The Night
27. Last Look At Eden
28. Final Countdown
Behind the scenes
Interview

DVDinfo

[pre]Title: Europe at Sweden 30
Size: 7.72 Gb ( 8 090 174,00 KBytes ) - DVD-9
Enabled regions: 1, 2, 3, 4, 5, 6, 7, 8
VTS_01 :
Play Length: 02:25:25
Video: NTSC 16:9 (720x480) VBR, Auto Letterboxed
Audio:
English (Dolby AC3, 2 ch)
English (Dolby AC3, 6 ch)
VTS_02 :
Play Length: 00:18:08
Video: NTSC 16:9 (720x480) VBR, Auto Letterboxed
Audio:
English (Dolby AC3, 2 ch)
VTS_03 :
Play Length: 00:05:45
Video: NTSC 16:9 (720x480) VBR, Auto Letterboxed
Audio:
English (Dolby AC3, 2 ch)
VTS_04 :
Play Length: 00:13:36
Video: NTSC 16:9 (720x480) VBR, Auto Letterboxed
Audio:
English (Dolby AC3, 2 ch)
Subtitles:
English
VTS_05 :
Play Length: 00:00:08
Video: NTSC 16:9 (720x480) VBR, Auto Letterboxed
Audio:
English (Dolby AC3, 2 ch)

MediaInfo

[pre]General
Complete name : E:\Uploads\Video\Rock\Europe - Live At Sweden Rock\Europe at Sweden 30\VIDEO_TS\VTS_01_1.VOB
Format : MPEG-PS
File size : 1 024 MiB
Duration : 22mn 51s
Overall bit rate mode : Variable
Overall bit rate : 6 262 Kbps
Video
ID : 224 (0xE0)
Format : MPEG Video
Format version : Version 2
Format profile : [email protected]
Format settings, BVOP : Yes
Format settings, Matrix : Default
Format settings, GOP : M=3, N=12
Duration : 22mn 51s
Bit rate mode : Variable
Bit rate : 5 497 Kbps
Maximum bit rate : 8 000 Kbps
Width : 720 pixels
Height : 480 pixels
Display aspect ratio : 16:9
Frame rate : 23.976 fps
Standard : NTSC
Color space : YUV
Chroma subsampling : 4:2:0
Bit depth : 8 bits
Scan type : Progressive
Scan order : 2:3 Pulldown
Compression mode : Lossy
Bits/(Pixel*Frame) : 0.663
Time code of first frame : 00:00:00:00
Time code source : Group of pictures header
Stream size : 899 MiB (88%)
Audio #1
ID : 189 (0xBD)-128 (0x80)
Format : AC-3
Format/Info : Audio Coding 3
Mode extension : CM (complete main)
Format settings, Endianness : Big
Muxing mode : DVD-Video
Duration : 22mn 51s
Bit rate mode : Constant
Bit rate : 192 Kbps
Channel(s) : 2 channels
Channel positions : Front: L R
Sampling rate : 48.0 KHz
Bit depth : 16 bits
Compression mode : Lossy
Delay relative to video : -83ms
Stream size : 31.4 MiB (3%)
Audio #2
ID : 189 (0xBD)-129 (0x81)
Format : AC-3
Format/Info : Audio Coding 3
Mode extension : CM (complete main)
Format settings, Endianness : Big
Muxing mode : DVD-Video
Duration : 22mn 51s
Bit rate mode : Constant
Bit rate : 448 Kbps
Channel(s) : 6 channels
Channel positions : Front: L C R, Side: L R, LFE
Sampling rate : 48.0 KHz
Bit depth : 16 bits
Compression mode : Lossy
Delay relative to video : -83ms
Stream size : 73.3 MiB (7%)
Menu

Обложка, диск

Буклет

-

Скриншоты меню

Скриншоты:

Concert

-

Behind the scenes

Interview

Время раздачи: 24/7
Яндекс.Метрика
Рейтинг@Mail.ru