Космический пират Харлок 3D / Space Pirate Captain Harlock (Синдзи Арамаки / Shinji Aramaki) [2013 г., Мультфильм, Фантастика, BDRip 1080p, Half OverUnder / Вертикальная анаморфная стереопара] AVO [Ю. Живов] + MVO [FireDub] + JAP + Sub (Rus, Eng)

 

Создавать темы 22-Апр-2014 04:11

Космический пират Харлок / Space Pirate Captain Harlock
Год выпуска: 2013
Страна: Япония, США, Франция (Toei Animation, Marza Animation Planet)
Жанр: Мультфильм, Фантастика, Боевик, Приключения
Продолжительность: 01:55:06
Перевод 1: Авторский (одноголосый закадровый) (Ю. Живов)
Перевод 2, 3: Любительский (многоголосый закадровый) FireDub и неизвестного авторства
Оригинальный аудиопоток: японский
Режиссер: Синдзи Арамаки / Shinji Aramaki
Роли озвучивали: Шун Огури, Аои Ю, Аяно Фукуда, Арата Фурута, Киёси Кобаяси, Харума Миура, Морикава Тосиюки, Тикао Оцука, Маая Сакамото, Миюки Савасиро
Описание: В будущем человечество обнаружило способ путешествовать быстрее света и построило колонии на тысячах планет. Но даже ресурсы Вселенной начинают сокращаться, поэтому пятьсот миллиардов людей начинают долгое путешествие обратно домой. Желание населить Землю перерастает в войну, пока универсальное правительство коалиции не объявляет Землю священной, и, таким образом, недоступной. В этой умирающей Вселенной космический пират, Капитан Харлок, преследующий таинственные цели, путешествует на своем очень мощном флагмане Аркадии. Молодой Яма, брат командующего флотом Ездры, проникает в экипаж Аркадии, чтобы раскрыть цели пиратского капитана.-КиноПоиск /-Качество: BDRip 1080p
Контейнер: MKV
Формат 3D: Half OverUnder / Вертикальная анаморфная стереопара
Видео кодек: x264
Аудио кодек: AC3
Видео: AVC / 23,976 fps / 1920х1080p / ~5.5 Mbps
Аудио:
#1 - Русский / AC3 / 48 KHz / 5.1 ch / 640 Kbps (AVO - Ю. Живов)
#2 - Русский / AC3 / 48 KHz / 5.1 ch / 640 Kbps (MVO - FireDub [Galaktion & Sora & HeavyBlozar]) (перевод - Lakfakalle)
#3 - Русский / AC3 / 48 KHz / 5.1 ch / 448 Kbps (MVO - Неизвестное авторство)
#4 - Японский / AC3 / 48 KHz / 5.1 ch / 640 Kbps (Original - BD 3D)
Субтитры внешние (SRT UTF-8):
#1 - Русские Полные (Lakfakalle)
#2 - English Полные
#3 - English Полные (BD 3D)

MediaInfo

General
Unique ID : 188842021830412649484438582943645805588 (0x8E11A6848EF8F5B9A52075E9793DAC14)
Complete name : E:SpacePirateCaptainHarlock(2013)3D-halfOU(Ash61)VO+MVO(x2)SpacePirateCaptainHarlock(2013)3D-halfOU(Ash61)VO+MVO(x2).mkv
Format : Matroska
Format version : Version 2
File size : 6.45 GiB
Duration : 1h 55mn
Overall bit rate : 8 016 Kbps
Movie name : Космический пират Харлок / Space Pirate Captain Harlock (2013) 3D
Encoded date : UTC 2014-04-19 05:30:21
Writing application : mkvmerge v5.8.0 ('No Sleep / Pillow') built on Sep 2 2012 15:37:04
Writing library : libebml v1.2.3 + libmatroska v1.3.0
Video
ID : 1
Format : AVC
Format/Info : Advanced Video Codec
Format profile : [email protected]
Format settings, CABAC : Yes
Format settings, ReFrames : 4 frames
Codec ID : V_MPEG4/ISO/AVC
Duration : 1h 55mn
Bit rate : 5 489 Kbps
Width : 1 920 pixels
Height : 1 080 pixels
Display aspect ratio : 16:9
Frame rate mode : Constant
Frame rate : 23.976 fps
Color space : YUV
Chroma subsampling : 4:2:0
Bit depth : 8 bits
Scan type : Progressive
Bits/(Pixel*Frame) : 0.110
Stream size : 4.41 GiB (68%)
Title : BDRip by Ash61
Writing library : x264 core 129 r2245 bc13772
Encoding settings : cabac=1 / ref=4 / deblock=1:-3:-3 / analyse=0x3:0x113 / me=umh / subme=10 / psy=1 / psy_rd=1.00:0.15 / mixed_ref=1 / me_range=32 / chroma_me=1 / trellis=2 / 8x8dct=1 / cqm=0 / deadzone=21,11 / fast_pskip=1 / chroma_qp_offset=-3 / threads=12 / lookahead_threads=2 / sliced_threads=0 / nr=0 / decimate=1 / interlaced=0 / bluray_compat=0 / constrained_intra=0 / bframes=8 / b_pyramid=2 / b_adapt=2 / b_bias=0 / direct=3 / weightb=1 / open_gop=0 / weightp=2 / keyint=250 / keyint_min=23 / scenecut=40 / intra_refresh=0 / rc_lookahead=60 / rc=crf / mbtree=1 / crf=17.0 / qcomp=0.70 / qpmin=0 / qpmax=69 / qpstep=4 / vbv_maxrate=40000 / vbv_bufsize=30000 / crf_max=0.0 / nal_hrd=none / frame-packing=4 / ip_ratio=1.40 / aq=1:0.70
Language : Japanese
Default : Yes
Forced : No
Audio #1
ID : 2
Format : AC-3
Format/Info : Audio Coding 3
Mode extension : CM (complete main)
Format settings, Endianness : Big
Codec ID : A_AC3
Duration : 1h 55mn
Bit rate mode : Constant
Bit rate : 640 Kbps
Channel(s) : 6 channels
Channel positions : Front: L C R, Side: L R, LFE
Sampling rate : 48.0 KHz
Bit depth : 16 bits
Compression mode : Lossy
Stream size : 527 MiB (8%)
Title : Одноголосый закадровый - Ю. Живов
Language : Russian
Default : Yes
Forced : No
Audio #2
ID : 3
Format : AC-3
Format/Info : Audio Coding 3
Mode extension : CM (complete main)
Format settings, Endianness : Big
Codec ID : A_AC3
Duration : 1h 55mn
Bit rate mode : Constant
Bit rate : 640 Kbps
Channel(s) : 6 channels
Channel positions : Front: L C R, Side: L R, LFE
Sampling rate : 48.0 KHz
Bit depth : 16 bits
Compression mode : Lossy
Stream size : 527 MiB (8%)
Title : Многоголосый закадровый - FireDub (Galaktion & Sora & HeavyBlozar)
Language : Russian
Default : No
Forced : No
Audio #3
ID : 4
Format : AC-3
Format/Info : Audio Coding 3
Mode extension : CM (complete main)
Format settings, Endianness : Big
Codec ID : A_AC3
Duration : 1h 55mn
Bit rate mode : Constant
Bit rate : 448 Kbps
Channel(s) : 6 channels
Channel positions : Front: L C R, Side: L R, LFE
Sampling rate : 48.0 KHz
Bit depth : 16 bits
Compression mode : Lossy
Stream size : 369 MiB (6%)
Title : Многоголосый закадровый - Происхождение неизвестно
Language : Russian
Default : No
Forced : No
Audio #4
ID : 5
Format : AC-3
Format/Info : Audio Coding 3
Mode extension : CM (complete main)
Format settings, Endianness : Big
Codec ID : A_AC3
Duration : 1h 55mn
Bit rate mode : Constant
Bit rate : 640 Kbps
Channel(s) : 6 channels
Channel positions : Front: L C R, Side: L R, LFE
Sampling rate : 48.0 KHz
Bit depth : 16 bits
Compression mode : Lossy
Stream size : 527 MiB (8%)
Title : Original - BD 3D
Language : Japanese
Default : No
Forced : No

Скриншоты

Яндекс.Метрика
Рейтинг@Mail.ru