Волчьи дети Амэ и Юки / Ookami kodomo no Ame to Yuki / おおかみこどもの雨と雪 (Мамору Хосода / Mamoru Hosoda) [2012 г., аниме, мультфильм, фэнтези, BDRip-AVC] Dub + Original (Jap) + Sub (Rus) [Jolly Roger]

 

Создавать темы 10-Апр-2014 19:07

-Волчьи дети Амэ и Юки / Ookami kodomo no Ame to Yuki / おおかみこどもの雨と雪- Год выпуска: 2012 г.
Производство: Япония
Жанр: аниме, мультфильм, фэнтези
Продолжительность: 01:57:01
Перевод: Профессиональный (полное дублирование)
Оригинальный аудиопоток: японский
Режиссер: Мамору Хосода / Mamoru Hosoda
В ролях: Аои Миядзаки, Такао Осава, Хару Куроки, Юкито Нисии, Момока Оно, Амон Кабе, Такума Хираока, Мэгуми Хаясибара, Тадаси Накамура, Тамио Оки
Описание: Юки и Амэ — только с виду обычные дети, которым должны быть нипочем тяготы окружающего мира. Когда погибает их отец, последний представитель древнего рода оборотней, их матери — обыкновенной девушке, когда-то влюбившейся в человека, оказавшегося волком — приходится переехать подальше от большого города и начать все сначала. Качество видео: BDRip-AVC
Контейнер: MKV
Видео кодек: H.264
Аудио кодек: AC3
Видео: MPEG4 Video (H264) 912x512 23.976fps 1130 Kbps
Аудио 1: Dolby AC3 48000Hz 6ch 448 Kbps / Русский
Аудио 2: Dolby AC3 48000Hz 2ch 192 Kbps / Японский
Субтитры: русские (форсированные и полные), отключаемые

Media Info / x.264

Log 2-nd pass

x264 [info]: using SAR=1/1
x264 [info]: using cpu capabilities: MMX2 SSE2Fast SSSE3 Cache64 SlowShuffle
x264 [info]: profile High, level 4.1
x264 [info]: frame I:1330 Avg QP:10.99 size:117651
x264 [info]: frame P:36878 Avg QP:13.59 size: 14732
x264 [info]: frame B:130141 Avg QP:17.06 size: 2243
x264 [info]: consecutive B-frames: 1.8% 1.3% 6.8% 35.1% 15.2% 17.6% 22.1%
x264 [info]: mb I I16..4: 19.1% 20.0% 60.8%
x264 [info]: mb P I16..4: 3.3% 1.7% 2.6% P16..4: 54.6% 5.1% 3.1% 1.1% 0.5% skip:28.1%
x264 [info]: mb B I16..4: 0.5% 0.3% 0.3% B16..8: 14.4% 2.6% 0.6% direct: 1.9% skip:79.4% L0:50.9% L1:42.4% BI: 6.6%
x264 [info]: 8x8 transform intra:22.7% inter:22.8%
x264 [info]: direct mvs spatial:97.3% temporal:2.7%
x264 [info]: coded y,uvDC,uvAC intra: 66.8% 55.0% 33.5% inter: 9.1% 5.0% 1.0%
x264 [info]: i16 v,h,dc,p: 37% 22% 24% 18%
x264 [info]: i8 v,h,dc,ddl,ddr,vr,hd,vl,hu: 19% 18% 23% 5% 6% 7% 7% 7% 8%
x264 [info]: i4 v,h,dc,ddl,ddr,vr,hd,vl,hu: 20% 18% 23% 6% 8% 7% 7% 6% 6%
x264 [info]: i8c dc,h,v,p: 55% 19% 19% 7%
x264 [info]: Weighted P-Frames: Y:2.0% UV:1.2%
x264 [info]: ref P L0: 46.4% 1.7% 22.6% 10.0% 9.6% 9.0% 0.6% 0.0%
x264 [info]: ref B L0: 54.8% 20.2% 16.4% 5.9% 2.8%
x264 [info]: ref B L1: 86.0% 14.0%
x264 [info]: kb/s:1129.88
x264 [total]: encoded 168349 frames, 4.63 fps, 1129.88 kb/s
Общее
Уникальный идентификатор : 244232942621745749665981268085403007593 (0xB7BD8DC338DC1C2FA8953249E9C3BA69)
Полное имя : I:\Volchi.deti.Ame.i.Uki.2012.H.264.BDRip-AVC.JRG.mkv
Формат : Matroska
Версия формата : Version 4 / Version 2
Размер файла : 1,45 Гбайт
Продолжительность : 1 ч. 57 м.
Общий поток : 1772 Кбит/сек
Название фильма : The Jolly Roger Release Group by http://Pirat.CA
Дата кодирования : UTC 2014-04-10 15:27:32
Программа кодирования : mkvmerge v6.6.0 ('The Edge Of The In Between') built on Dec 1 2013 17:55:00
Библиотека кодирования : libebml v1.3.0 + libmatroska v1.4.1
Видео
Идентификатор : 1
Формат : AVC
Формат/Информация : Advanced Video Codec
Профиль формата : [email protected]
Параметр CABAC формата : Нет
Параметр ReFrames формата : 6 кадров
Идентификатор кодека : V_MPEG4/ISO/AVC
Продолжительность : 1 ч. 57 м.
Битрейт : 1130 Кбит/сек
Ширина : 912 пикселей
Высота : 512 пикселей
Соотношение сторон : 16:9
Режим частоты кадров : Постоянный
Частота кадров : 23,976 кадра/сек
Цветовое пространство : YUV
Субдискретизация насыщенности : 4:2:0
Битовая глубина : 8 бит
Тип развёртки : Прогрессивная
Бит/(Пиксели*Кадры) : 0.101
Размер потока : 918 Мбайт (62%)
Библиотека кодирования : x264 core 130 r2273 b3065e6
Настройки программы : cabac=0 / ref=6 / deblock=1:0:0 / analyse=0x3:0x133 / me=umh / subme=9 / psy=0 / mixed_ref=0 / me_range=32 / chroma_me=1 / trellis=2 / 8x8dct=1 / cqm=0 / deadzone=21,11 / fast_pskip=1 / chroma_qp_offset=0 / threads=3 / lookahead_threads=1 / sliced_threads=0 / nr=0 / decimate=1 / interlaced=0 / bluray_compat=0 / constrained_intra=0 / bframes=6 / b_pyramid=2 / b_adapt=2 / b_bias=0 / direct=3 / weightb=1 / open_gop=0 / weightp=2 / keyint=250 / keyint_min=23 / scenecut=40 / intra_refresh=0 / rc_lookahead=50 / rc=2pass / mbtree=1 / bitrate=1130 / ratetol=1.0 / qcomp=0.60 / qpmin=0 / qpmax=69 / qpstep=4 / cplxblur=20.0 / qblur=0.5 / ip_ratio=1.40 / aq=1:1.00
Default : Да
Forced : Нет
Аудио #1
Идентификатор : 2
Формат : AC-3
Формат/Информация : Audio Coding 3
Расширение режима : CM (complete main)
Параметр Endianness формата : Big
Идентификатор кодека : A_AC3
Продолжительность : 1 ч. 57 м.
Вид битрейта : Постоянный
Битрейт : 448 Кбит/сек
Каналы : 6 каналов
Расположение каналов : Front: L C R, Side: L R, LFE
Частота : 48,0 КГц
Битовая глубина : 16 бит
Метод сжатия : С потерями
Размер потока : 375 Мбайт (25%)
Язык : Russian
Default : Да
Forced : Нет
Аудио #2
Идентификатор : 3
Формат : AC-3
Формат/Информация : Audio Coding 3
Расширение режима : CM (complete main)
Параметр Endianness формата : Big
Идентификатор кодека : A_AC3
Продолжительность : 1 ч. 57 м.
Вид битрейта : Постоянный
Битрейт : 192 Кбит/сек
Каналы : 2 канала
Расположение каналов : Front: L R
Частота : 48,0 КГц
Битовая глубина : 16 бит
Метод сжатия : С потерями
Размер потока : 161 Мбайт (11%)
Язык : Japanese
Default : Нет
Forced : Нет
Текст #1
Идентификатор : 4
Формат : UTF-8
Идентификатор кодека : S_TEXT/UTF8
Идентификатор кодека/Информация : UTF-8 Plain Text
Заголовок : Forced
Язык : Russian
Default : Да
Forced : Нет
Текст #2
Идентификатор : 5
Формат : UTF-8
Идентификатор кодека : S_TEXT/UTF8
Идентификатор кодека/Информация : UTF-8 Plain Text
Заголовок : Full
Язык : Russian
Default : Нет
Forced : Нет

Скриншоты

Яндекс.Метрика
Рейтинг@Mail.ru