Президио / The Presidio (Питер Хайамс / Peter Hyams) [1988 г., Криминал, детектив, BDRip-AVC, 576p] AVO (Гаврилов, Володарский)

 

Создавать темы 04-Апр-2014 17:23

Президио / The Presidio«THE PRESIDIO ARMY BASE, SAN FRANCISCO. When a landmark of historic tradition becomes the scene of a shocking murder, a military commander and a street-tough cop are forced into action... against the killer, the mysterious past, and each other.» Год выпуска: 1988
Производство: США, Paramount
Жанр: Криминал, детектив
Продолжительность: 01:36:42
Перевод: Авторский (одноголосый, закадровый) Гаврилов, Володарский
Субтитры: отсутствуют
Режиссер: Питер Хайамс / Peter Hyams
В ролях: Шон Коннери (Lt. Col. Alan Caldwell), Марк Хэрмон (Jay Austin), Мег Райан (Donna Caldwell), Джек Уорден (Sgt. Maj. Ross Maclure), Марк Блум (Arthur Peale), Дэна Гладстоун (Col. Paul Lawrence), Дженетт Голдстин (Patti Jean Lynch), Марвин Дж. МакИнтайр (MP Zeke), Дон Кэлфа (Howard Buckely), Джон ДиСанти (Det. Marvin Powell), Роберт Лессер (Sgt. Mueller), Джеймс Хукс Рейнольдс (George Spota)
Описание: Подполковник Вооруженных Сил США Алан Колдуэлл и инспектор полиции Сан-Франциско Джей Остин не особенно ладят. Откровенно говоря, они просто не выносят друг друга.
Пару лет назад между мужчинами вспыхнул конфликт, который со временем перерос в стойкую ненависть. Теперь же эти заклятые враги вынуждены вместе заняться расследованием жестокого убийства, произошедшего на военной базе «Президио».
Хуже того... Инспектор Остин неожиданно стал проявлять активный интерес к молодой и привлекательной даме, которая волею судеб оказалась дочерью подполковника Колдуэлла.
Но именно в тот момент, когда напряжение между недругами должно было превратиться в глобальную катастрофу, расследование принимает совершенно неожиданный оборот. Двум офицерам приходится объединиться, чтобы остаться в живых...


КиноПоиск
Качество видео: BDRip-AVC
Контейнер: MKV
Видео кодек: H.264
Видео: 1024x426 (2,40:1) at 23.976 fps, [email protected], ~3100 kbps avg
Аудио#1: 48 kHz, AC3 Dolby Digital, 3/2 (L,C,R,l,r) + LFE ch, ~448 kbps - Гаврилов
Аудио#2: 48 kHz, AC3 Dolby Digital, 2/0 (L,R) ch, ~192 kbps - Володарский

Media Info

Формат : Matroska
Версия формата : Version 4 / Version 2
Размер файла : 2,53 Гбайт
Продолжительность : 1 ч. 36 м.
Общий поток : 3741 Кбит/сек
Название фильма : The Presidio.1988.BDRip.Gavrilov.Volodarsky
Дата кодирования : UTC 2014-04-04 06:59:55
Программа кодирования : mkvmerge v6.8.0 ('Theme for Great Cities') 32bit built on Mar 2 2014 21:27:07
Библиотека кодирования : libebml v1.3.0 + libmatroska v1.4.1
Видео
Идентификатор : 1
Формат : AVC
Формат/Информация : Advanced Video Codec
Профиль формата : [email protected]
Параметр CABAC формата : Да
Параметр ReFrames формата : 9 кадров
Идентификатор кодека : V_MPEG4/ISO/AVC
Продолжительность : 1 ч. 36 м.
Битрейт : 3100 Кбит/сек
Ширина : 1024 пикселя
Высота : 426 пикселей
Соотношение сторон : 2,40:1
Режим частоты кадров : Постоянный
Частота кадров : 23,976 кадра/сек
Цветовое пространство : YUV
Субдискретизация насыщенности : 4:2:0
Битовая глубина : 8 бит
Тип развёртки : Прогрессивная
Бит/(Пиксели*Кадры) : 0.296
Размер потока : 2,04 Гбайт (81%)
Заголовок : The Presidio.1988.BDRip (1024x426)
Библиотека кодирования : x264 core 130 r2273 b3065e6
Настройки программы : cabac=1 / ref=9 / deblock=1:-2:-2 / analyse=0x3:0x133 / me=umh / subme=11 / psy=1 / psy_rd=1.00:0.15 / mixed_ref=1 / me_range=32 / chroma_me=1 / trellis=2 / 8x8dct=1 / cqm=0 / deadzone=21,11 / fast_pskip=0 / chroma_qp_offset=-3 / threads=3 / lookahead_threads=1 / sliced_threads=0 / nr=0 / decimate=0 / interlaced=0 / bluray_compat=0 / constrained_intra=0 / bframes=8 / b_pyramid=2 / b_adapt=2 / b_bias=0 / direct=3 / weightb=1 / open_gop=0 / weightp=2 / keyint=240 / keyint_min=23 / scenecut=40 / intra_refresh=0 / rc=2pass / mbtree=0 / bitrate=3100 / ratetol=1.0 / qcomp=0.60 / qpmin=0 / qpmax=69 / qpstep=4 / cplxblur=20.0 / qblur=0.5 / ip_ratio=1.40 / pb_ratio=1.30 / aq=1:1.00
Язык : English
Default : Да
Forced : Нет
Аудио #1
Идентификатор : 2
Формат : AC-3
Формат/Информация : Audio Coding 3
Расширение режима : CM (complete main)
Параметр Endianness формата : Big
Идентификатор кодека : A_AC3
Продолжительность : 1 ч. 36 м.
Вид битрейта : Постоянный
Битрейт : 448 Кбит/сек
Каналы : 6 каналов
Расположение каналов : Front: L C R, Side: L R, LFE
Частота : 48,0 КГц
Битовая глубина : 16 бит
Метод сжатия : С потерями
Размер потока : 310 Мбайт (12%)
Заголовок : Gavrilov AC3 5.1 448kbps
Язык : Russian
Default : Да
Forced : Нет
Аудио #2
Идентификатор : 3
Формат : AC-3
Формат/Информация : Audio Coding 3
Расширение режима : CM (complete main)
Параметр Endianness формата : Big
Идентификатор кодека : A_AC3
Продолжительность : 1 ч. 36 м.
Вид битрейта : Постоянный
Битрейт : 192 Кбит/сек
Каналы : 2 канала
Расположение каналов : Front: L R
Частота : 48,0 КГц
Битовая глубина : 16 бит
Метод сжатия : С потерями
Размер потока : 133 Мбайт (5%)
Заголовок : Volodarsky AC3 2.0 192 kbps
Язык : Russian
Default : Нет
Forced : Нет
Меню
00:00:00.000 : :Chapter 01
00:10:31.422 : :Chapter 02
00:13:10.623 : :Chapter 03
00:16:08.592 : :Chapter 04
00:23:08.595 : :Chapter 05
00:25:50.799 : :Chapter 06
00:33:41.310 : :Chapter 07
00:37:18.027 : :Chapter 08
00:41:40.664 : :Chapter 09
00:44:17.571 : :Chapter 10
00:47:21.964 : :Chapter 11
00:48:55.974 : :Chapter 12
00:56:53.159 : :Chapter 13
01:04:20.648 : :Chapter 14
01:14:38.307 : :Chapter 15
01:29:35.495 : :Chapter 16
01:36:42.421 : :Chapter 17

log x.264

x264 [info]: frame I:1088 Avg QP:16.23 size: 75781
x264 [info]: frame P:29492 Avg QP:18.81 size: 31026
x264 [info]: frame B:108545 Avg QP:19.95 size: 11522
by krakatuq

Скриншоты

Яндекс.Метрика
Рейтинг@Mail.ru