BBC: Одни ли мы во Вселенной? / Are We Alone In The Universe? (Гидеон Бредшоу)(2008,Документальный, научно-популярный) HDTVRip 720p | P1

 

Создавать темы 31-Мар-2014 14:10

- Информация о фильме
Название: BBC: Одни ли мы во Вселенной? / Are We Alone In The Universe?
Год выпуска: 2008
Жанр: Документальный, научно-популярный
Режиссер: Гидеон Бредшоу-Описание:

Почему людей так влечет к ночному небу? Почему мы пытаемся найти в Космосе очаги жизни, но при этом сомневаемся, что там есть обитаемые миры? В мире есть несколько групп очень опытных ученых, которые разделяют одну точку зрения: мы не одиноки во Вселенной и на других планетах есть жизнь! В нашей солнечной системе, в 200 триллионах километров от Земли есть планета, которая может показаться нам весьма знакомой. Обнаружение планеты Gliese 581 c - это невероятное открытие. Оно показывает нам, как близко мы подобрались к планетам, напоминающим нашу Землю... И если ученые правы, то, возможно, вскоре мы сможем ответить на важнейший вопрос в истории: одни ли мы во Вселенной?
-

Тех. данные

Продолжительность: 00:48:22
Выпущено: , BBC
Перевод: Одноголосый закадровый (профессиональный)
Субтитры: Вшитые, отключаемые
Язык субтитров: Русский
Файл
Формат: MKV
Качество: BDRip 720p
Видео: MPEG-4 AVC/H.264, ~ 2 800 Кбит/с, 1280 x 720
Аудио: Русский AC3, 2 ch, 192 Кбит/с; английский AC3, 2 ch, 192 Кбит/с; немецкий AC3, 2 ch, 256 Кбит/с

MI:

General
Unique ID : 193846095655863314667867296069847443006 (0x91D56667E1DDD046B2E36CE77725663E)
Complete name : D:BBCBBC.Are.We.Alone.In.Universe.2008.HDTVRip.(720p).mkv
Format : Matroska
Format version : Version 2
File size : 1.18 GiB
Duration : 48mn 22s
Overall bit rate : 3 484 Kbps
Encoded date : UTC 2011-08-16 16:03:15
Writing application : mkvmerge v3.2.0 ('Beginnings') built on Feb 12 2010 16:46:17
Writing library : libebml v0.7.9 + libmatroska v0.8.1
Video
ID : 1
Format : AVC
Format/Info : Advanced Video Codec
Format profile : [email protected]
Format settings, CABAC : Yes
Format settings, ReFrames : 4 frames
Codec ID : V_MPEG4/ISO/AVC
Duration : 48mn 22s
Bit rate : 2 774 Kbps
Width : 1 280 pixels
Height : 720 pixels
Display aspect ratio : 16:9
Frame rate mode : Constant
Frame rate : 25.000 fps
Color space : YUV
Chroma subsampling : 4:2:0
Bit depth : 8 bits
Scan type : Progressive
Bits/(Pixel*Frame) : 0.120
Stream size : 960 MiB (80%)
Language : English
Default : Yes
Forced : No
Color primaries : BT.709
Transfer characteristics : BT.709
Matrix coefficients : BT.709
Audio #1
ID : 2
Format : AC-3
Format/Info : Audio Coding 3
Mode extension : CM (complete main)
Format settings, Endianness : Big
Codec ID : A_AC3
Duration : 48mn 22s
Bit rate mode : Constant
Bit rate : 192 Kbps
Channel(s) : 2 channels
Channel positions : Front: L R
Sampling rate : 48.0 KHz
Bit depth : 16 bits
Compression mode : Lossy
Stream size : 66.4 MiB (6%)
Title : odni.li.my.vo.Vselennoj
Language : Russian
Default : Yes
Forced : Yes
Audio #2
ID : 3
Format : AC-3
Format/Info : Audio Coding 3
Mode extension : CM (complete main)
Format settings, Endianness : Big
Codec ID : A_AC3
Duration : 48mn 22s
Bit rate mode : Constant
Bit rate : 192 Kbps
Channel(s) : 2 channels
Channel positions : Front: L R
Sampling rate : 48.0 KHz
Bit depth : 16 bits
Compression mode : Lossy
Stream size : 66.4 MiB (6%)
Title : are.we.alone.in.the.Universe
Language : English
Default : No
Forced : No
Audio #3
ID : 4
Format : AC-3
Format/Info : Audio Coding 3
Mode extension : CM (complete main)
Format settings, Endianness : Big
Codec ID : A_AC3
Duration : 48mn 22s
Bit rate mode : Constant
Bit rate : 256 Kbps
Channel(s) : 2 channels
Channel positions : Front: L R
Sampling rate : 48.0 KHz
Bit depth : 16 bits
Compression mode : Lossy
Delay relative to video : 24ms
Stream size : 88.6 MiB (7%)
Title : sind.wir.alleine.im.Universum
Language : German
Default : No
Forced : No
Text
ID : 5
Format : UTF-8
Codec ID : S_TEXT/UTF8
Codec ID/Info : UTF-8 Plain Text
Title : subs_russ
Language : Russian
Default : Yes
Forced : Yes
-

Скриншоты

-
Яндекс.Метрика
Рейтинг@Mail.ru