[ Сегодня на трекере фрилич! Идет свободное скачивание без начисления Download ]

Проверено - мин нет (Юрий Лысенко, Здравко Велимирович) [1965 г., военный, DVDRip]

 

Создавать темы 29-Мар-2014 19:39

-Проверено - мин нет-- Производство: СССР, Киностудия им. А.Довженко / СФЗ Югославия, Ловченфильм
Режиссер: Юрий Лысенко, Здравко Велимирович
Жанр: военный
Год выпуска: 1965 г.
Продолжительность: 01:21:56
В ролях: Ольга Лысенко, Бранко Плеша, Никола Попович, Миха Балох, Бора Бегович, Ескендыр Умурзаков, Олег Анофриев, Хусейн Чокич, Константин Степанков, Леонид Тарабаринов, Василий Фушич, Елена Лицканович, Г. Маркович.-Описание: 20 октября 1944 год. Освобожденный Белград ликует. Люди пока не знают, что, отступая, гитлеровцы решили взорвать город. На поверхности саперы прощупывают каждый уголок и делают надпись: "Проверено - мин нет". А заминирована глубоко под землей городская канализация и плотина. Спасти Белград - сложная, но не такая уж невыполнимая миссия. Группе советских и югославских бойцов удается предотвратить взрыв...-Качество видео: DVDRip
Контейнер: AVI
Видео кодек: DivX
Аудио кодек: MP3
Видео: 640x480; 1060 kbps; 25 fps, 0.138 bit/pixel
Аудио: 128 kbps; 48 kHz; 2 ch
Cубтитры: отсутствуют

Media Info

Общее
Полное имя : E:\Torrent\Provereno_min_net_[Pirat.ca].torrent.avi
Формат : AVI
Формат/Информация : Audio Video Interleave
Размер файла : 700 Мбайт
Продолжительность : 1 ч. 21 м.
Общий поток : 1195 Кбит/сек
Программа кодирования : VirtualDubMod 1.5.4.1 (build 2178/release)
Библиотека кодирования : VirtualDubMod build 2178/release
Видео
Идентификатор : 0
Формат : MPEG-4 Visual
Параметр BVOP формата : 1
Параметр QPel формата : Нет
Параметр GMC формата : Без точки перехода
Параметр матрицы формата : Default (H.263)
Режим смешивания : Сжатый битовый поток
Идентификатор кодека : DX50
Идентификатор кодека/Подсказка : DivX 5
Продолжительность : 1 ч. 21 м.
Битрейт : 1060 Кбит/сек
Ширина : 640 пикселей
Высота : 480 пикселей
Соотношение сторон : 4:3
Частота кадров : 25,000 кадров/сек
Цветовое пространство : YUV
Субдискретизация насыщенности : 4:2:0
Битовая глубина : 8 бит
Тип развёртки : Прогрессивная
Метод сжатия : С потерями
Бит/(Пиксели*Кадры) : 0.138
Размер потока : 621 Мбайт (89%)
Библиотека кодирования : DivX 5.2.1 (WaffleDay) (UTC 2004-09-08)
Аудио
Идентификатор : 1
Формат : MPEG Audio
Версия формата : Version 1
Профиль формата : Layer 3
Режим : Joint stereo
Расширение режима : MS Stereo
Идентификатор кодека : 55
Идентификатор кодека/Подсказка : MP3
Продолжительность : 1 ч. 21 м.
Вид битрейта : Постоянный
Битрейт : 128 Кбит/сек
Каналы : 2 канала
Частота : 48,0 КГц
Метод сжатия : С потерями
Размер потока : 75,0 Мбайт (11%)
Выравнивание : Соединение по промежуткам
Продолжительность промежутка : 80 мс. (2,00 видеокадра)
Время предзагрузки промежутка : 504 мс.
Библиотека кодирования : LAME3.98r
Настройки программы : -m j -V 4 -q 2 -lowpass 17 -b 128

Скриншоты

Раздача

Раздача с 15.00 до 3.30 (время московское)
Яндекс.Метрика
Рейтинг@Mail.ru