Нормандия – Неман (Жан Древиль) [1960 г., военный, DVDRip]

 

Создавать темы 29-Мар-2014 04:03

-Нормандия – Неман-- Производство: СССР (Мосфильм), Франция (Франко-Лондон-фильм и Алькам-фильм)
Режиссер: Жан Древиль
Жанр: военный
Год выпуска: 1960 г.
Продолжительность: 01:53:41
В ролях: Виталий Доронин, Николай Лебедев, Владимир Гусев, Николай Рыбников, Юрий Медведев, Марк Кассо, Жан-Клод Мишель, Жак Ришар, Жерар Дарье, Нина Гребешкова-Описание: Фильм о лётчиках славной французской эскадрильи "Нормандия-Неман", сражавшихся в годы Второй мировой войны в российском небе и похороненных в братской могиле на Введенском кладбище (в народе его называют "немецким") в Москве.-Качество видео: DVDRip
Контейнер: AVI
Видео кодек: XviD
Аудио кодек: MP3
Видео: 640x480; 778 kbps; 25 fps; 0.101 bit/pixel
Аудио: 128 kbps; 48 kHz; 2 ch
Cубтитры: отсутствуют

Награды

Брюссель-61 («За фильм, способствующий делу мира»).

Media Info

Общее
Полное имя : E:\Torrent\Normandia_Neman.torrent.avi
Формат : AVI
Формат/Информация : Audio Video Interleave
Размер файла : 745 Мбайт
Продолжительность : 1 ч. 53 м.
Общий поток : 916 Кбит/сек
Программа кодирования : VirtualDubMod 1.5.10.2 (build 2540/release)
Библиотека кодирования : VirtualDubMod build 2540/release
Видео
Идентификатор : 0
Формат : MPEG-4 Visual
Профиль формата : Advanced [email protected]
Параметр BVOP формата : 2
Параметр QPel формата : Нет
Параметр GMC формата : Без точки перехода
Параметр матрицы формата : Default (H.263)
Режим смешивания : Сжатый битовый поток
Идентификатор кодека : XVID
Идентификатор кодека/Подсказка : XviD
Продолжительность : 1 ч. 53 м.
Битрейт : 778 Кбит/сек
Ширина : 640 пикселей
Высота : 480 пикселей
Соотношение сторон : 4:3
Частота кадров : 25,000 кадров/сек
Цветовое пространство : YUV
Субдискретизация насыщенности : 4:2:0
Битовая глубина : 8 бит
Тип развёртки : Прогрессивная
Метод сжатия : С потерями
Бит/(Пиксели*Кадры) : 0.101
Размер потока : 633 Мбайт (85%)
Библиотека кодирования : XviD 1.2.1 (UTC 2008-12-04)
Аудио
Идентификатор : 1
Формат : MPEG Audio
Версия формата : Version 1
Профиль формата : Layer 3
Режим : Joint stereo
Расширение режима : MS Stereo
Идентификатор кодека : 55
Идентификатор кодека/Подсказка : MP3
Продолжительность : 1 ч. 53 м.
Вид битрейта : Постоянный
Битрейт : 128 Кбит/сек
Каналы : 2 канала
Частота : 48,0 КГц
Метод сжатия : С потерями
Размер потока : 104 Мбайт (14%)
Выравнивание : Соединение по промежуткам
Продолжительность промежутка : 40 мс. (1,00 видеокадр)
Время предзагрузки промежутка : 504 мс.

Скриншоты

Яндекс.Метрика
Рейтинг@Mail.ru