Собачье сердце (2 серии) (Владимир Бортко) [1988 г., драма, DVDRip]

 

Создавать темы 27-Мар-2014 02:33

-Собачье сердце (2 серии)-- Производство: СССР, Ленфильм
Режиссер: Владимир Бортко
Жанр: драма
Год выпуска: 1988 г.
Продолжительность: 02:10:20
В ролях: Евгений Евстигнеев, Борис Плотников, Владимир Толоконников, Нина Русланова, Ольга Мелихова, Алексей Миронов, Роман Карцев, Анжелика Неволина, Наталья Фоменко, Евгений Кузнецов, Иван Ганжа, Валентина Ковель, Сергей Филиппов, Роман Ткачук, Алексей Савостьянов, Юрий Волков, Анатолий Сливников, Юрий Эллер, Юрий Кузнецов, Евгений Иловайский, Нора Грякалова, Борис Соколов, Сергей Бехтерев, Владимир Меньшов, Владимир Бортко-Описание: 1920-е годы. Профессор Филипп Филиппович Преображенский, выдающийся хирург, достиг отличных результатов в практическом омоложении. Продолжая исследования, он задумал небывалый эксперимент — операцию по пересадке человеческого гипофиза и семенных желез человека собаке. Бродячий пёс Шарик стал подопытным животным, получил доступ в великолепную квартиру профессора и отличное питание. Донором органов стал погибший в драке Клим Чугункин — алкоголик, дебошир и хулиган. Результаты операции превзошли ожидания. Шарик превратился в человека...-Качество видео: DVDRip
Контейнер: AVI
Видео кодек: XviD
Аудио кодек: AC3
1серия Видео: 688x512; 2008 kbps; 25 fps; 0.228 bit/pixel
2серия Видео: 688x512; 1982 kbps; 25 fps; 0.225 bit/pixel
Аудио: 384.00 kbps; 48 kHz; 6 ch
Cубтитры: отсутствуют

Media Info

1серия
Общее
Полное имя : E:\Torrent\Sobachie_serdze_[Pirat.ca].torrent\01 серия.avi
Формат : AVI
Формат/Информация : Audio Video Interleave
Размер файла : 1,09 Гбайт
Продолжительность : 1 ч. 4 м.
Общий поток : 2402 Кбит/сек
Название фильма : Собачье сердце (1-я серия)
Режиссёр : zim2001
Программа кодирования : VirtualDubMod 1.5.10.2 (build 2540/release)
Правообладатель : torrents.ru
Видео
Идентификатор : 0
Формат : MPEG-4 Visual
Профиль формата : Advanced [email protected]
Параметр BVOP формата : 1
Параметр QPel формата : Нет
Параметр GMC формата : Без точки перехода
Параметр матрицы формата : Выборочная
Идентификатор кодека : XVID
Идентификатор кодека/Подсказка : XviD
Продолжительность : 1 ч. 4 м.
Битрейт : 2008 Кбит/сек
Ширина : 688 пикселей
Высота : 512 пикселей
Соотношение сторон : 4:3
Частота кадров : 25,000 кадров/сек
Цветовое пространство : YUV
Субдискретизация насыщенности : 4:2:0
Битовая глубина : 8 бит
Тип развёртки : Прогрессивная
Метод сжатия : С потерями
Бит/(Пиксели*Кадры) : 0.228
Размер потока : 931 Мбайт (84%)
Библиотека кодирования : XviD 1.2.1 (UTC 2008-12-04)
Аудио
Идентификатор : 1
Формат : AC-3
Формат/Информация : Audio Coding 3
Расширение режима : CM (complete main)
Параметр Endianness формата : Big
Идентификатор кодека : 2000
Продолжительность : 1 ч. 4 м.
Вид битрейта : Постоянный
Битрейт : 384 Кбит/сек
Каналы : 6 каналов
Расположение каналов : Front: L C R, Side: L R, LFE
Частота : 48,0 КГц
Битовая глубина : 16 бит
Метод сжатия : С потерями
Задержка видео : 62 мс.
Размер потока : 178 Мбайт (16%)
Выравнивание : Разделение по промежуткам
Продолжительность промежутка : 40 мс. (1,00 видеокадр)
Время предзагрузки промежутка : 500 мс.
2серия
лное имя : E:\Torrent\Sobachie_serdze_[Pirat.ca].torrent\02 серия.avi
Формат : AVI
Формат/Информация : Audio Video Interleave
Размер файла : 1,09 Гбайт
Продолжительность : 1 ч. 5 м.
Общий поток : 2376 Кбит/сек
Название фильма : Собачье сердце (2-я серия)
Режиссёр : zim2001
Программа кодирования : VirtualDubMod 1.5.10.2 (build 2540/release)
Правообладатель : torrents.ru
Видео
Идентификатор : 0
Формат : MPEG-4 Visual
Профиль формата : Advanced [email protected]
Параметр BVOP формата : 1
Параметр QPel формата : Нет
Параметр GMC формата : Без точки перехода
Параметр матрицы формата : Выборочная
Идентификатор кодека : XVID
Идентификатор кодека/Подсказка : XviD
Продолжительность : 1 ч. 5 м.
Битрейт : 1982 Кбит/сек
Ширина : 688 пикселей
Высота : 512 пикселей
Соотношение сторон : 4:3
Частота кадров : 25,000 кадров/сек
Цветовое пространство : YUV
Субдискретизация насыщенности : 4:2:0
Битовая глубина : 8 бит
Тип развёртки : Прогрессивная
Метод сжатия : С потерями
Бит/(Пиксели*Кадры) : 0.225
Размер потока : 929 Мбайт (83%)
Библиотека кодирования : XviD 1.2.1 (UTC 2008-12-04)
Аудио
Идентификатор : 1
Формат : AC-3
Формат/Информация : Audio Coding 3
Расширение режима : CM (complete main)
Параметр Endianness формата : Big
Идентификатор кодека : 2000
Продолжительность : 1 ч. 5 м.
Вид битрейта : Постоянный
Битрейт : 384 Кбит/сек
Каналы : 6 каналов
Расположение каналов : Front: L C R, Side: L R, LFE
Частота : 48,0 КГц
Битовая глубина : 16 бит
Метод сжатия : С потерями
Задержка видео : 730 мс.
Размер потока : 180 Мбайт (16%)
Выравнивание : Разделение по промежуткам
Продолжительность промежутка : 40 мс. (1,00 видеокадр)
Время предзагрузки промежутка : 500 мс.

Скриншоты

Яндекс.Метрика
Рейтинг@Mail.ru