[ Сегодня на трекере фрилич! Идет свободное скачивание без начисления Download ]

Космический пират Харлок / Space Pirate Captain Harlock (Синдзи Арамаки / Shinji Aramaki) [2013 г., Приключения, фантастика, боевик, мультфильм, BDRip 1080p, Half SideBySide / Горизонтальная анаморфная стереопара] MVO

 

Создавать темы 16-Мар-2014 04:03

-Космический пират Харлок / Space Pirate Captain Harlock-- Год выпуска: 2013
Страна: Япония, Toei Animation Company
Жанр: Приключения, фантастика, боевик, мультфильм, супергерой
Продолжительность: 01:55:06
Перевод: Любительский (многоголосый закадровый)
Режиссер: Синдзи Арамаки / Shinji Aramaki
Роли озвучивали (на японском): Шун Огури, Аои Ю, Аяно Фукуда, Арата Фурута, Киёси Кобаяси, Харума Миура, Морикава Тосиюки, Тикао Оцука, Маая Сакамото, Миюки Савасиро
Описание: Далекое будущее. Преступная корпорация Гайя стала злейшим врагом Земли, отобрав у людей все: свободу, дом, будущее… Казалось, что надежды на спасение нет… Но, появился Он — космический пират Харлок, капитан призрачного корабля Аркадия. Беглец, готовый сражаться за Землю. Кто Он, герой или преступник?..
Качество: BDRip 1080p
Контейнер: AVC
Формат 3D: Half SideBySide / Горизонтальная анаморфная стереопара
Видео кодек: H.264
Аудио кодек: AC3
Видео: MPEG-4 AVC, 9000 Кбит/с, 1920x1080, 23.976 кадр/с
Аудио: AC3, 6 ch, 448 Кбит/с, 48 kHz

MediaInfo

Общее
Уникальный идентификатор : 208629002232086047106566181977297680782 (0x9CF47BF8E607EA1C80CAE0A637D6798E)
Формат : Matroska
Версия формата : Version 2
Размер файла : 7,59 Гбайт
Продолжительность : 1 ч. 55 м.
Общий поток : 9445 Кбит/сек
Дата кодирования : UTC 2014-03-14 20:15:20
Программа кодирования : mkvmerge v4.0.0 ('The Stars were mine') сборка от Jun 6 2010 16:18:42
Библиотека кодирования : libebml v1.0.0 + libmatroska v1.0.0
Видео
Идентификатор : 1
Формат : AVC
Формат/Информация : Advanced Video Codec
Профиль формата : [email protected]
Параметр CABAC формата : Да
Параметр ReFrames формата : 4 кадра
Идентификатор кодека : V_MPEG4/ISO/AVC
Продолжительность : 1 ч. 55 м.
Битрейт : 9000 Кбит/сек
Ширина : 1920 пикселей
Высота : 1080 пикселей
Соотношение сторон : 16:9
Режим частоты кадров : Постоянный
Частота кадров : 23,976 кадра/сек
Цветовое пространство : YUV
Субдискретизация насыщенности : 4:2:0
Битовая глубина : 8 бит
Тип развёртки : Прогрессивная
Бит/(Пиксели*Кадры) : 0.181
Размер потока : 7,08 Гбайт (93%)
Библиотека кодирования : x264 core 129 r2230 1cffe9f
Настройки программы : cabac=1 / ref=4 / deblock=1:-1:-1 / analyse=0x3:0x133 / me=umh / subme=11 / psy=1 / psy_rd=0.60:0.00 / mixed_ref=1 / me_range=64 / chroma_me=1 / trellis=2 / 8x8dct=1 / cqm=0 / deadzone=21,11 / fast_pskip=0 / chroma_qp_offset=-2 / threads=12 / lookahead_threads=2 / sliced_threads=0 / nr=0 / decimate=1 / interlaced=0 / bluray_compat=0 / constrained_intra=0 / bframes=10 / b_pyramid=2 / b_adapt=2 / b_bias=0 / direct=3 / weightb=1 / open_gop=0 / weightp=2 / keyint=250 / keyint_min=23 / scenecut=40 / intra_refresh=0 / rc_lookahead=60 / rc=2pass / mbtree=0 / bitrate=9000 / ratetol=1.0 / qcomp=0.70 / qpmin=0 / qpmax=69 / qpstep=4 / cplxblur=20.0 / qblur=0.5 / vbv_maxrate=40000 / vbv_bufsize=30000 / nal_hrd=none / ip_ratio=1.40 / pb_ratio=1.30 / aq=1:0.80
Язык : English
Default : Да
Forced : Нет
Аудио
Идентификатор : 2
Формат : AC-3
Формат/Информация : Audio Coding 3
Расширение режима : CM (complete main)
Параметр Endianness формата : Big
Идентификатор кодека : A_AC3
Продолжительность : 1 ч. 55 м.
Вид битрейта : Постоянный
Битрейт : 448 Кбит/сек
Каналы : 6 каналов
Расположение каналов : Front: L C R, Side: L R, LFE
Частота : 48,0 КГц
Битовая глубина : 16 бит
Метод сжатия : С потерями
Размер потока : 369 Мбайт (5%)
Заголовок : Russian AC-3 (48 KHz; 448 Kbps; 6 ch; 16 bits)
Язык : Russian
Default : Нет
Forced : Нет

Скриншоты

Яндекс.Метрика
Рейтинг@Mail.ru