Сокровища серебряного озера / Der Schatz im Silbersee (Харальд Рейнл/Harald Reinl) [1962 г., вестерн, DVDRip] MVO + Original (Ger)

 

Создавать темы 15-Мар-2014 04:42

-Сокровища серебряного озера / Der Schatz im Silbersee-- Производство: Германия, Франция, Югославия
Год выпуска: 1962 г.
Жанр: вестерн
Продолжительность: 01:46:00
Перевод: Профессиональный (многоголосый, закадровый)
Оригинальный аудиопоток: немецкий
Режиссер: Харальд Рейнл/Harald Reinl-В ролях: Лекс Баркер, Пьер Брис, Герберт Лом, Карин Дор, Гетс Георге, Ральф Волтер-Описание: Легендарные Шаттерхэнд и его друг Виннету, последний вождь апачей, идут по следу бандитов, которые ограбили почтовую карету и убили пассажира. К ним присоединяется Фред Энгель – сын убитого. По ходу расследования оказалось , что убийство произошло из-за карты на которой обозначено местонахождение сокровищ серебряного озера. Вместе с ними мы пересечем скалистые горы, будем скакать в бескрайних просторах прерий, в поисках сказочных сокровищ.-Качество видео: DVDRip
Контейнер: AVI
Видео кодек: DivX
Аудио кодек: MP3
Видео: 720x336, 1604Kbps, 25.00fps, 0.26 Бит/Пиксели
Аудио: 127Kbps, 44100Hz, 2ch,
Аудио #2: 127Kbps, 44100Hz, 2ch,
Cубтитры: отсутствуют

Media Info

Общее
Полное имя : E:\Torrent\Sokrovischa_serebrennogo_osera _[Pirat.ca].avi
Формат : AVI
Формат/Информация : Audio Video Interleave
Размер файла : 1,30 Гбайт
Продолжительность : 1 ч. 46 м.
Общий поток : 1742 Кбит/сек
Название фильма : Treasures of the Silverlake
Режиссёр : Constantin Studio, 1962
Жанр : Adventure
Формат оригинала/Имя : Movie
Правообладатель : RIP by Kai @XviD.ru
Примечание : Not for sale!
Видео
Идентификатор : 0
Формат : MPEG-4 Visual
Параметр BVOP формата : 1
Параметр QPel формата : Нет
Параметр GMC формата : Без точки перехода
Параметр матрицы формата : Default (H.263)
Режим смешивания : Сжатый битовый поток
Идентификатор кодека : DX50
Идентификатор кодека/Подсказка : DivX 5
Продолжительность : 1 ч. 46 м.
Битрейт : 1604 Кбит/сек
Ширина : 720 пикселей
Высота : 336 пикселей
Соотношение сторон : 2,143
Частота кадров : 25,000 кадров/сек
Цветовое пространство : YUV
Субдискретизация насыщенности : 4:2:0
Битовая глубина : 8 бит
Тип развёртки : Прогрессивная
Метод сжатия : С потерями
Бит/(Пиксели*Кадры) : 0.265
Размер потока : 1,19 Гбайт (92%)
Библиотека кодирования : DivX 6.0.0 (UTC 2005-06-15)
Аудио
Идентификатор : 1
Формат : MPEG Audio
Версия формата : Version 1
Профиль формата : Layer 3
Режим : Joint stereo
Расширение режима : MS Stereo
Идентификатор кодека : 55
Идентификатор кодека/Подсказка : MP3
Продолжительность : 1 ч. 46 м.
Вид битрейта : Постоянный
Битрейт : 128 Кбит/сек
Каналы : 2 канала
Частота : 44,1 КГц
Метод сжатия : С потерями
Размер потока : 97,2 Мбайт (7%)
Выравнивание : Разделение по промежуткам
Продолжительность промежутка : 40 мс. (1,00 видеокадр)
Время предзагрузки промежутка : 462 мс.

Скриншоты

Яндекс.Метрика
Рейтинг@Mail.ru