Marquese Scott - Set Fire To The Rain [2013 г.] (Dubstep) [HDTVRip, 720p]

 

Создавать темы 07-Мар-2014 16:44

-Marquese Scott - Set Fire To The Rain--
Год выпуска: 2013 г.
Страна: USA
Жанр: Dubstep
Продолжительность: 00:04:52-Качество видео: HDTVRip
Контейнер: MP4
Стандарт разрешения: 720p
Видео кодек: H.264
Аудио кодек: AAC
Видео: 1280x720, 5 139 kbps, 29.970 fps
Аудио: 192 kbps, 2 ch., 44.1 kHz
-

Media Info

C:\Моя папка\Музыка\Торрент\Marquese Scott - Set Fire To The Rain.mp4
General
Complete name : C:\Моя папка\Музыка\Торрент\Marquese Scott - Set Fire To The Rain.mp4
Format : MPEG-4
Format profile : Base Media / Version 2
Codec ID : mp42
File size : 111 MiB
Duration : 4mn 52s
Overall bit rate mode : Variable
Overall bit rate : 3 194 Kbps
Encoded date : UTC 2013-12-04 07:46:04
Tagged date : UTC 2013-12-04 07:46:04
gsst : 0
gstd : 292385
gssd : BADC23AAAHH1394149337081058
gshh : r10---sn-n8v7lnee.googlevideo.com
Video #1
ID : 1
Format : AVC
Format/Info : Advanced Video Codec
Format profile : [email protected]
Format settings, CABAC : Yes
Format settings, ReFrames : 1 frame
Codec ID : avc1
Codec ID/Info : Advanced Video Coding
Duration : 4mn 52s
Bit rate : 3 000 Kbps
Maximum bit rate : 5 139 Kbps
Width : 1 280 pixels
Height : 720 pixels
Display aspect ratio : 16:9
Frame rate mode : Constant
Frame rate : 29.970 fps
Color space : YUV
Chroma subsampling : 4:2:0
Bit depth : 8 bits
Scan type : Progressive
Bits/(Pixel*Frame) : 0.109
Stream size : 105 MiB (94%)
Tagged date : UTC 2013-12-04 07:46:07
Audio #2
ID : 2
Format : AAC
Format/Info : Advanced Audio Codec
Format profile : LC
Codec ID : 40
Duration : 4mn 52s
Bit rate mode : Variable
Bit rate : 192 Kbps
Maximum bit rate : 201 Kbps
Channel(s) : 2 channels
Channel positions : Front: L R
Sampling rate : 44.1 KHz
Compression mode : Lossy
Stream size : 6.69 MiB (6%)
Title : IsoMedia File Produced by Google, 5-11-2011
Encoded date : UTC 2013-12-04 07:46:06
Tagged date : UTC 2013-12-04 07:46:07

Скриншоты

-
Яндекс.Метрика
Рейтинг@Mail.ru