Пуля / Bullet (2014) WEB-DLRip [VO]

 

Создавать темы 24-Фев-2014 21:33

-Пуля / Bullet (2014) WEB-DLRip- Год выпуска: 2014
Производство: США | Giant Ape Media, SC Films International
Перевод: Одноголосый закадровый, любительский
Озвучка / Автор перевода: qwerty
Субтитры: Отдельным файлом
Язык субтитров: Английский-Дата мировой премьеры: 7 марта 2014
Дата российской премьеры: 29 мая 2014, «All Media»-Режиссер: Ник Лион-Продюсер: Мэттью Джойнс, Ник Лион, Роберт Родригез-Актеры: Дэнни Трехо, Торстен Фогс, Джонатан Бэнкс, Кайл Вильяловос, Ив Мауро, Шери ДеЯнг, Эрик Блоссом, Джералд Уэбб, Тинсел Кори, Эрик Этебари-Описание фильма:
Пуля — это прозвище бескомпромиссного и жестокого полицейского, для которого борьба с преступностью является смыслом его жизни. В один ужасный день мафия похищает его внука, сама того не понимая какие неприятности на себя навлекая. Пуля берет закон в свои руки и начинает вершить правосудие без суда и следствия.-
Продолжительность: 01:27:16
Качество видео: WEB-DLRip
Видеокодек: Xvid
Битрейт видео: ~1590 Кбит/сек
Размер кадра: 720 x 368 (1.957) at 23.976 fps
Аудио #1: AC3 256 Кбит/сек (2ch), 44,1 КГц, 16 бит [Русский, VO qwerty]
Аудио #2: AC3 224 Кбит/сек (2ch), 48,0 КГц, 16 бит [Английский]

MediaInfo:

Полное имя                               : G:\Bullet.2014\Bullet.2014.avi
Формат                                   : AVI
Формат/Информация                        : Audio Video Interleave
Размер файла                             : 1,27 Гбайт
Продолжительность                        : 1 ч. 27 м.
Общий поток                              : 2084 Кбит/сек
Программа кодирования                    : VirtualDubMod 1.5.10.2 (build 2540/release)
Библиотека кодирования                   : VirtualDubMod build 2540/release
Видео
Идентификатор                            : 0
Формат                                   : xvid
Идентификатор кодека                     : xvid
Продолжительность                        : 1 ч. 27 м.
Битрейт                                  : 1590 Кбит/сек
Ширина                                   : 720 пикселей
Высота                                   : 368 пикселей
Соотношение сторон                       : 1,957
Частота кадров                           : 23,976 кадра/сек
Бит/(Пиксели*Кадры)                      : 0.250
Размер потока                            : 993 Мбайт (76%)
Аудио #1
Идентификатор                            : 1
Формат                                   : AC-3
Формат/Информация                        : Audio Coding 3
Расширение режима                        : CM (complete main)
Параметр Endianness формата              : Big
Идентификатор кодека                     : 2000
Продолжительность                        : 1 ч. 27 м.
Вид битрейта                             : Постоянный
Битрейт                                  : 256 Кбит/сек
Каналы                                   : 2 канала
Расположение каналов                     : Front: L R
Частота                                  : 44,1 КГц
Битовая глубина                          : 16 бит
Метод сжатия                             : С потерями
Размер потока                            : 160 Мбайт (12%)
Выравнивание                             : Разделение по промежуткам
Продолжительность промежутка             : 42  мс. (1,00 видеокадр)
Время предзагрузки промежутка            : 500  мс.
Аудио #2
Идентификатор                            : 2
Формат                                   : AC-3
Формат/Информация                        : Audio Coding 3
Расширение режима                        : CM (complete main)
Параметр Endianness формата              : Big
Идентификатор кодека                     : 2000
Продолжительность                        : 1 ч. 27 м.
Вид битрейта                             : Постоянный
Битрейт                                  : 224 Кбит/сек
Каналы                                   : 2 канала
Расположение каналов                     : Front: L R
Частота                                  : 48,0 КГц
Битовая глубина                          : 16 бит
Метод сжатия                             : С потерями
Размер потока                            : 140 Мбайт (11%)
Выравнивание                             : Разделение по промежуткам
Продолжительность промежутка             : 42  мс. (1,00 видеокадр)
Время предзагрузки промежутка            : 500  мс.

Скриншоты

Яндекс.Метрика
Рейтинг@Mail.ru