[ Сегодня на трекере фрилич! Идет свободное скачивание без начисления Download ]

Тор 2: Царство тьмы / Thor: The Dark World (Алан Тейлор / Alan Taylor) [2013 г., фэнтези, боевик, приключения, BDRip] AVO (А.Гаврилов)

 

Создавать темы 24-Фев-2014 02:11

Тор 2: Царство тьмы / Thor: The Dark World Год выпуска: 2013
Производство: США
Жанр: фэнтези, боевик, приключения
Продолжительность: 01:52:03
Перевод: Авторский (одноголосый, закадровый) А.Гаврилов
Субтитры: отсутствуют
Режиссер: Алан Тейлор / Alan Taylor
В ролях: Крис Хемсворт, Натали Портман, Том Хиддлстон, Энтони Хопкинс, Кристофер Экклстон, Джейми Александер, Закари Левай, Рэй Стивенсон, Таданобу Асано, Идрис Эльба.
Описание: Продолжение приключений одного из членов команды Мстителей, скандинавского бога Тора, которому на этот раз в одиночку предстоит защитить Землю и все девять миров от нашествия неизвестного врага. Могучему Тору предстоит вновь сразиться за восстановление порядка в галактике, встретившись лицом к лицу с древней инопланетной расой, ведомой злодеем Малекитом, жаждущим установить в девяти мирах власть тьмы. Столкнувшись с врагом, более могущественным чем сам Один и всё воинство Асгарда, Тор должен собрать силы для решающей битвы. Его ждёт опасное путешествие и долгожданная встреча со своей земной возлюбленной Джейн Фостер. Сможет ли Тор рискнуть самым дорогим, чтобы не дать тьме воцариться на просторах вселенной?
Сэмпл , КиноПоиск
Качество видео: BDRip
Контейнер: AVI
Видео кодек: XviD
Аудио кодек: AC3
Видео: 720x304 (2.37:1), 23.976 fps, XviD build 65 ~1875 kbps avg, 0.36 bit/pixel
Аудио : 48 kHz, AC3 Dolby Digital, 3/2 (L,C,R,l,r) + LFE ch, ~448 kbps - А.Гаврилов

Media Info

Format : AVI
Format/Info : Audio Video Interleave
File size : 1.83 GiB
Duration : 1h 52mn
Overall bit rate : 2 333 Kbps
Writing application : VirtualDubMod 1.5.10.3 (build 2550/release)
Video
ID : 0
Format : MPEG-4 Visual
Format profile : Advanced [email protected]
Format settings, BVOP : 1
Format settings, QPel : No
Format settings, GMC : No warppoints
Format settings, Matrix : Custom
Codec ID : XVID
Codec ID/Hint : XviD
Duration : 1h 52mn
Bit rate : 1 875 Kbps
Width : 720 pixels
Height : 304 pixels
Display aspect ratio : 2.35:1
Frame rate : 23.976 fps
Color space : YUV
Chroma subsampling : 4:2:0
Bit depth : 8 bits
Scan type : Progressive
Compression mode : Lossy
Bits/(Pixel*Frame) : 0.357
Stream size : 1.47 GiB (80%)
Writing library : XviD 65
Audio
ID : 1
Format : AC-3
Format/Info : Audio Coding 3
Mode extension : CM (complete main)
Format settings, Endianness : Big
Codec ID : 2000
Duration : 1h 52mn
Bit rate mode : Constant
Bit rate : 448 Kbps
Channel(s) : 6 channels
Channel positions : Front: L C R, Side: L R, LFE
Sampling rate : 48.0 KHz
Bit depth : 16 bits
Compression mode : Lossy
Stream size : 359 MiB (19%)
Alignment : Split accross interleaves
Interleave, duration : 42 ms (1.00 video frame)
Interleave, preload duration : 500 ms

Скриншоты

Яндекс.Метрика
Рейтинг@Mail.ru