[ Сегодня на трекере фрилич! Идет свободное скачивание без начисления Download ]

Чемпионы (Алексей Вакулов, Артем Аксененко, Дмитрий Дюжев) [2014 г., спорт, драма, BDRip, 720p] [Jolly Roger]

 

Создавать темы 23-Фев-2014 21:57

Чемпионы Год выпуска: 2014 г.
Производство: Россия
Жанр: спорт, драма
Продолжительность: 01:37:51
Перевод: Не требуется
Режиссер: Алексей Вакулов, Артем Аксененко, Дмитрий Дюжев
В ролях: Андрей Смоляков, Марк Богатырев, Андрей Федорцов, Михаил Горевой, Дмитрий Губерниев, Таисия Вилкова, Александр Молочников, Максим Виторган, Светлана Ходченкова, Ольга Тумайкина
Описание: Пять реальных историй больших побед российских спортсменов. И за каждой победой стоят человеческие истории, в которых переплетаются любовь, предательство, дружба, уважение, труд и вера. Вера в себя, вера в победу.

Качество видео: BDRip
Контейнер: MKV
Стандарт разрешения: 720p
Видео кодек: H.264
Аудио кодек: AC3
Видео: MPEG4 Video (H264) 1280x536 24fps 2539 Kbps
Аудио: Dolby AC3 48000Hz 6ch 640 Kbps
Сравнение скриншотов с исходником

Media Info / x.264

Log 2-nd pass

x264 [info]: using SAR=1/1
x264 [info]: using cpu capabilities: MMX2 SSE2Fast SSSE3 Cache64 SlowShuffle
x264 [info]: profile High, level 4.1
x264 [info]: frame I:1478 Avg QP:14.19 size: 83320
x264 [info]: frame P:36767 Avg QP:17.72 size: 26531
x264 [info]: frame B:102664 Avg QP:20.71 size: 7433
x264 [info]: consecutive B-frames: 4.7% 5.3% 12.7% 27.2% 16.6% 28.9% 4.7%
x264 [info]: mb I I16..4: 19.4% 41.7% 38.9%
x264 [info]: mb P I16..4: 8.9% 16.8% 4.2% P16..4: 35.8% 15.4% 8.8% 0.8% 0.2% skip: 9.1%
x264 [info]: mb B I16..4: 1.5% 2.4% 0.5% B16..8: 31.2% 9.9% 1.9% direct: 3.8% skip:48.8% L0:44.1% L1:41.7% BI:14.2%
x264 [info]: 8x8 transform intra:54.2% inter:60.7%
x264 [info]: direct mvs spatial:97.1% temporal:2.9%
x264 [info]: coded y,uvDC,uvAC intra: 55.5% 64.8% 34.7% inter: 16.4% 17.7% 3.7%
x264 [info]: i16 v,h,dc,p: 35% 25% 16% 24%
x264 [info]: i8 v,h,dc,ddl,ddr,vr,hd,vl,hu: 23% 20% 22% 4% 6% 7% 6% 6% 7%
x264 [info]: i4 v,h,dc,ddl,ddr,vr,hd,vl,hu: 24% 21% 23% 4% 7% 6% 6% 5% 5%
x264 [info]: i8c dc,h,v,p: 31% 30% 22% 17%
x264 [info]: Weighted P-Frames: Y:3.4% UV:1.9%
x264 [info]: ref P L0: 50.4% 10.5% 17.9% 7.2% 5.7% 4.1% 3.7% 0.5% 0.0%
x264 [info]: ref B L0: 75.8% 12.1% 6.2% 3.3% 1.8% 0.7%
x264 [info]: ref B L1: 92.7% 7.3%
x264 [info]: kb/s:2536.77
x264 [total]: encoded 140909 frames, 1.50 fps, 2536.77 kb/s
General
Unique ID : 251465772166466098171755700929929025158 (0xBD2E8BCA9D0986358168520E77E61686)
Complete name : H:\Chempioni.2014.H.264.BDRip.720p.JRG.mkv
Format : Matroska
Format version : Version 4 / Version 2
File size : 2.17 GiB
Duration : 1h 37mn
Overall bit rate : 3 179 Kbps
Movie name : The Jolly Roger Release Group by Pirat.CA
Encoded date : UTC 2014-02-23 16:05:15
Writing application : mkvmerge v6.6.0 ('The Edge Of The In Between') built on Dec 1 2013 17:55:00
Writing library : libebml v1.3.0 + libmatroska v1.4.1
Video
ID : 1
Format : AVC
Format/Info : Advanced Video Codec
Format profile : [email protected]
Format settings, CABAC : Yes
Format settings, ReFrames : 7 frames
Codec ID : V_MPEG4/ISO/AVC
Duration : 1h 37mn
Bit rate : 2 539 Kbps
Width : 1 280 pixels
Height : 536 pixels
Display aspect ratio : 2.40:1
Frame rate mode : Constant
Frame rate : 24.000 fps
Color space : YUV
Chroma subsampling : 4:2:0
Bit depth : 8 bits
Scan type : Progressive
Bits/(Pixel*Frame) : 0.154
Stream size : 1.69 GiB (78%)
Writing library : x264 core 130 r2273 b3065e6
Encoding settings : cabac=1 / ref=7 / deblock=1:0:0 / analyse=0x3:0x133 / me=umh / subme=10 / psy=0 / mixed_ref=1 / me_range=24 / chroma_me=1 / trellis=2 / 8x8dct=1 / cqm=0 / deadzone=21,11 / fast_pskip=0 / chroma_qp_offset=0 / threads=3 / lookahead_threads=1 / sliced_threads=0 / nr=0 / decimate=1 / interlaced=0 / bluray_compat=0 / constrained_intra=0 / bframes=6 / b_pyramid=2 / b_adapt=2 / b_bias=0 / direct=3 / weightb=1 / open_gop=0 / weightp=2 / keyint=250 / keyint_min=23 / scenecut=40 / intra_refresh=0 / rc_lookahead=50 / rc=2pass / mbtree=1 / bitrate=2539 / ratetol=1.0 / qcomp=0.60 / qpmin=0 / qpmax=69 / qpstep=4 / cplxblur=20.0 / qblur=0.5 / ip_ratio=1.40 / aq=1:1.00
Default : Yes
Forced : No
Audio
ID : 2
Format : AC-3
Format/Info : Audio Coding 3
Mode extension : CM (complete main)
Format settings, Endianness : Big
Codec ID : A_AC3
Duration : 1h 37mn
Bit rate mode : Constant
Bit rate : 640 Kbps
Channel(s) : 6 channels
Channel positions : Front: L C R, Side: L R, LFE
Sampling rate : 48.0 KHz
Bit depth : 16 bits
Compression mode : Lossy
Stream size : 448 MiB (20%)
Default : Yes
Forced : No

Скриншоты

Яндекс.Метрика
Рейтинг@Mail.ru