[ Сегодня на трекере фрилич! Идет свободное скачивание без начисления Download ]

ХХII Зимние Олимпийские Игры Сочи 2014 / Биатлон, Эстафета 4х6 км / Женщины (Спорт 1 HD - Дмитрий Губерниев) [21.02.2014 г., HDTVRip, MKV, 720p, RU]

 

Создавать темы 22-Фев-2014 16:54

Биатлон, Эстафета 4х6 км / ЖенщиныЖаркие. Зимние. Твои.Официальный сайт "Сочи 2014" -Год выпуска: 21.02.2014 г.
Вид спорта: Биатлон, Эстафета 4х6 км
Участники: Женщины
Продолжительность: 01:25:50
Комментатор: Дмитрий Губерниев
Язык комментариев: русский
Автор рипа / записи: Багга-ТВ Канал: -Арена: Арена: Лаура (Сочи, Россия) 21 февраля 2014 года, пятница. 18:30 МСК-Качество видео: HDTVRip
Контейнер: MKV
Видео кодек: H.264
Аудио кодек: AC3
Видео: 2933 Кбит/сек (3300 Кбит/сек); 1280*720 (16:9); в 50,000 кадра/сек; AVC; 0.127 Бит/(Пиксели*Кадры)
Аудио: 192 Кбит/сек; 48,0 КГц; 16 бит; 2 каналоа; АС-3
[url=http://pirat.ca/viewtopic.php?t=126746][/url]Биатлон. Расписание и результаты. Скачать.

Составы команд

1 Украина
1 Вита Семеренко
2 Юлия Джима
3 Валентина Семеренко
4 Елена Пидгрушная
2 Россия
1 Яна Романова
2 Ольга Зайцева
3 Екатерина Шумилова
4 Ольга Вилухина
3 Норвегия
1 Фанни Велле-Странн Хорн
2 Тириль Экхофф
3 Анн-Кристин Офедт Флатланн
4 Тура Бергер
4 Чехия
1 Ева Пускарчикова
2 Габриэла Соукалова
3 Йитка Ландова
4 Вероника Виткова
5 Белоруссия
1 Людмила Калинчик
2 Надежда Скардино
3 Надежда Писарева
4 Дарья Домрачева
6 Италия
1 Доротея Вирер
2 Николь Гонтье
3 Микела Понца
4 Карин Оберхофер
7 США
1 Сюзан Данкли
2 Хана Дрейссигакер
3 Сара Студебейкер
4 Аннализ Кук
8 Канада
1 Розанна Кроуфорд
2 Меган Имри
3 Меган Танди-Хайнике
4 Зина Кохер
9 Швейцария
1 Селина Гаспарин
2 Элиза Гаспарин
3 Айта Гаспарин
4 Ирен Кадуриш
10 Польша
1 Кристина Палка
2 Магдалена Гвиздонь
3 Вероника Новаковска-Земняк
4 Моника Хойниш
11 Германия
1 Франциска Пройс
2 Андреа Хенкель
3 Франциска Хильдебранд
4 Лаура Дальмайер
12 Казахстан
1 Галина Вишневская
2 Елена Хрусталёва
3 Дарья Усанова
4 Марина Лебедева
13 Япония
1 Фуюко Сузуки
2 Юки Накадзима
3 Мики Кобаяси
4 Рина Судзуки
14 Словакия
1 Яна Герекова
2 Паулина Фиалкова
3 Тереза Полякова
4 Мартина Храпанова
15 Китай
1 Сун Чаоцин
2 Чжан Ян
3 Тан Цзялинь
4 Сон На
16 Эстония
1 Кадри Лехтла
2 Грете Гайм
3 Дарья Юрлова
4 Йоханна Талихарм
Франция
1 Мари-Лор Брюне
2 Мари Дорен-Абер
3 Анаис Шевалье
4 Анаи Бескон

Media Info

Общее
Уникальный идентификатор : 259367521873974755841005983648371367521 (0xC3205E21726B3E332A9996E92306DE61)
Формат : Matroska
Версия формата : Version 2
Размер файла : 1,87 Гбайт
Продолжительность : 1 ч. 25 м.
Общий поток : 3123 Кбит/сек
Программа кодирования : XviD4PSP 6.0 / 54.29.105
Библиотека кодирования : XviD4PSP 6.0 / 54.29.105
Видео
Идентификатор : 2
Формат : AVC
Формат/Информация : Advanced Video Codec
Профиль формата : [email protected]
Параметр CABAC формата : Да
Параметр ReFrames формата : 5 кадров
Идентификатор кодека : V_MPEG4/ISO/AVC
Продолжительность : 1 ч. 25 м.
Битрейт : 2933 Кбит/сек
Номинальный битрейт : 3300 Кбит/сек
Ширина : 1280 пикселей
Высота : 720 пикселей
Соотношение сторон : 16:9
Режим частоты кадров : Постоянный
Частота кадров : 25,000 кадров/сек
Цветовое пространство : YUV
Субдискретизация насыщенности : 4:2:0
Битовая глубина : 8 бит
Тип развёртки : Прогрессивная
Бит/(Пиксели*Кадры) : 0.127
Размер потока : 1,76 Гбайт (94%)
Библиотека кодирования : x264 core 128 r2216M 198a7ea
Настройки программы : cabac=1 / ref=6 / deblock=1:0:0 / analyse=0x3:0x133 / me=tesa / subme=10 / psy=1 / psy_rd=1.00:0.20 / mixed_ref=1 / me_range=16 / chroma_me=1 / trellis=2 / 8x8dct=1 / cqm=0 / deadzone=21,11 / fast_pskip=1 / chroma_qp_offset=-3 / threads=8 / lookahead_threads=1 / sliced_threads=0 / nr=0 / decimate=1 / interlaced=0 / bluray_compat=0 / constrained_intra=0 / bframes=6 / b_pyramid=1 / b_adapt=2 / b_bias=0 / direct=3 / weightb=1 / open_gop=0 / weightp=2 / keyint=250 / keyint_min=25 / scenecut=40 / intra_refresh=0 / rc_lookahead=40 / rc=cbr / mbtree=1 / bitrate=3300 / ratetol=1.0 / qcomp=0.60 / qpmin=10 / qpmax=51 / qpstep=4 / vbv_maxrate=3300 / vbv_bufsize=3300 / nal_hrd=none / ip_ratio=1.40 / aq=1:1.00
Язык : English
Default : Да
Forced : Нет
HANDLER_NAME : AVerMedia Video Media Handler
Аудио
Идентификатор : 1
Формат : AC-3
Формат/Информация : Audio Coding 3
Расширение режима : CM (complete main)
Параметр Endianness формата : Big
Идентификатор кодека : A_AC3
Продолжительность : 1 ч. 25 м.
Вид битрейта : Постоянный
Битрейт : 128 Кбит/сек
Каналы : 2 канала
Расположение каналов : Front: L R
Частота : 48,0 КГц
Битовая глубина : 16 бит
Метод сжатия : С потерями
Задержка видео : 27 мс.
Размер потока : 78,6 Мбайт (4%)
Язык : English
Default : Да
Forced : Нет
HANDLER_NAME : AVerMedia Audio Media Handler

Скриншоты

Яндекс.Метрика
Рейтинг@Mail.ru