ХХII Зимние Олимпийские Игры Сочи 2014 / Биатлон, Смешанная эстафета, 2х6 км женщины + 2х7,5 км мужчины (Спорт 1 HD - Дмитрий Губерниев) [19.02.2014 г., HDTVRip, AVI RU]

 

Создавать темы 22-Фев-2014 16:51

Смешанная эстафета, 2х6 км женщины + 2х7,5 км мужчиныЖаркие. Зимние. Твои.Официальный сайт "Сочи 2014" -Год выпуска: 19.02.2014 г.
Вид спорта: Биатлон, Смешанная эстафета, 2х6 км женщины + 2х7,5 км мужчины
Продолжительность: 01:30:28
Комментатор: Дмитрий Губерниев
Язык комментариев: русский
Автор рипа / записи: sanchez2011-ТВ Канал: -Арена: Лаура (Сочи, Россия) 19 февраля 2014 года, среда. 18:30 МСК-Качество видео: HDTVRip
Контейнер: AVI
Видео кодек: XviD
Аудио кодек: MP3
Видео: 704x400 (1.76:1), 25 fps, XviD build 64 ~1699 kbps avg, 0.24 bit/pixel
Аудио: 48 kHz, MPEG Layer 3, 2 ch, ~128.00 kbps avg
[url=http://pirat.ca/viewtopic.php?t=126746][/url]Биатлон. Расписание и результаты. Скачать.

Составы команд

1 Норвегия
1 Тура Бергер
2 Тириль Экхофф
3 Уле-Эйнар Бьорндален
4 Эмиль Хегле Свендсен
2 Чехия
1 Вероника Виткова
2 Габриэла Соукалова
3 Ярослав Соукуп
4 Ондржей Моравец
3 Италия
1 Доротея Вирер
2 Карин Оберхофер
3 Доминик Виндиш
4 Лукас Хофер
4 Германия
1 Эви Захенбахер-Штеле
2 Лаура Дальмайер
3 Даниэль Бём
4 Симон Шемпп
5 Россия
1 Ольга Зайцева
2 Ольга Вилухина
3 Евгений Гараничев
4 Антон Шипулин
6 Словакия
1 Яна Герекова
2 Анастасия Кузьмина
3 Павол Хурайт
4 Матей Казар
7 Франция
1 Мари Дорен-Абер
2 Анаи Бескон
3 Жан-Гийом Беатрикс
4 Мартен Фуркад
8 Украина
1 Наталья Бурдыга
2 Мария Панфилова
3 Андрей Дериземля
4 Сергей Семёнов
9 США
1 Сюзан Данкли
2 Хана Дрейссигакер
3 Тим Бурк
4 Лоуэлл Бэйли
10 Австрия
1 Лиза Тереза Хойзер
2 Катарина Иннерхофер
3 Даниэль Мезотич
4 Фридрих Пинтер
11 Белоруссия
1 Людмила Калинчик
2 Анастасия Дуборезова
3 Владимир Чепелин
4 Евгений Абраменко
12 Канада
1 Меган Имри
2 Розанна Кроуфорд
3 Брендан Грин
4 Скотт Перрас
13 Швейцария
1 Элиза Гаспарин
2 Селина Гаспарин
3 Беньямин Вегер
4 Симон Халленбартер
14 Польша
1 Кристина Палка
2 Магдалена Гвиздонь
3 Лукаш Щурек
4 Кшиштоф Пливачик
15 Казахстан
1 Елена Хрусталёва
2 Дарья Усанова
3 Сергей Наумик
4 Антон Пантов
16 Эстония
1 Кадри Лехтла
2 Дарья Юрлова
3 Каури Койв
4 Данил Степченко

Media Info

Общее
Формат : AVI
Формат/Информация : Audio Video Interleave
Размер файла : 1,16 Гбайт
Продолжительность : 1 ч. 30 м.
Общий поток : 1837 Кбит/сек
Программа кодирования : VirtualDubMod 1.5.10.2 (build 2540/release)
Библиотека кодирования : VirtualDubMod build 2540/release
Видео
Идентификатор : 0
Формат : MPEG-4 Visual
Профиль формата : Advanced [email protected]
Параметр BVOP формата : 2
Параметр QPel формата : Нет
Параметр GMC формата : Без точки перехода
Параметр матрицы формата : Default (H.263)
Идентификатор кодека : XVID
Идентификатор кодека/Подсказка : XviD
Продолжительность : 1 ч. 30 м.
Битрейт : 1699 Кбит/сек
Ширина : 704 пикселя
Высота : 400 пикселей
Соотношение сторон : 16:9
Частота кадров : 25,000 кадров/сек
Цветовое пространство : YUV
Субдискретизация насыщенности : 4:2:0
Битовая глубина : 8 бит
Тип развёртки : Прогрессивная
Метод сжатия : С потерями
Бит/(Пиксели*Кадры) : 0.241
Размер потока : 1,07 Гбайт (93%)
Библиотека кодирования : XviD 64
Аудио
Идентификатор : 1
Формат : MPEG Audio
Версия формата : Version 1
Профиль формата : Layer 3
Режим : Joint stereo
Расширение режима : MS Stereo
Идентификатор кодека : 55
Идентификатор кодека/Подсказка : MP3
Продолжительность : 1 ч. 30 м.
Вид битрейта : Постоянный
Битрейт : 128 Кбит/сек
Каналы : 2 канала
Частота : 48,0 КГц
Метод сжатия : С потерями
Размер потока : 82,8 Мбайт (7%)
Выравнивание : Соединение по промежуткам
Продолжительность промежутка : 40 мс. (1,00 видеокадр)
Время предзагрузки промежутка : 504 мс.
Библиотека кодирования : LAME3.100Є

Скриншоты

Яндекс.Метрика
Рейтинг@Mail.ru