Эта сумасшедшая молодёжь / Yeh Jawaani Hai Deewani (2013) DVDRip

 

Создавать темы 17-Фев-2014 11:18

-Эта сумасшедшая молодёжь / Yeh Jawaani Hai Deewani (2013) DVDRip- Год выпуска: 2013
Производство: Индия | Dharma Productions
Жанр: Мьюзикл, Драма, Мелодрама
Перевод: Двуголосый закадровый, любительский
Язык субтитров: Русский (вшитые на песни)-Дата мировой премьеры: 30 мая 2013 (Кувейт)-Режиссер: Аян Мукхерджи-Продюсеры: Марике Десоуза, Хироо Джохар, Каран Джохар-Актеры: Ранбир Капур, Дипика Падукон, Адитья Рой Капур, Калки Коечлин, Кунаал Рой Капур, Мадхури Диксит, Фарук Шайх, Долли Ахлувалиа, Танви Азми, Рана Даггубати, Аниса Батт ...-Описание фильма:
Это история отношений двух молодых людей, впервые встретившихся сразу после колледжа. Тогда желание реализовать себя в жизни помешало им быть вместе, но спустя почти десять лет они встречаются снова, уже с багажом реализованных и нереализованных желаний и планов, чтобы испытать счастье любви.-Продолжительность: 02:40:48
Качество видео: DVDRip

Видеокодек: Xvid
Битрейт видео: ~1070 Кбит/сек
Размер кадра: 720 x 304, 23.976 fps
Аудио: MP3 2.0, 192 Кбит/сек, 44,1 КГц

MediaInfo

Общее
Полное имя : F:\Торенты2\Eta.sumasshedshaya.molod�zh.2013.L2.DVDRip.avi
Формат : AVI
Формат/Информация : Audio Video Interleave
Размер файла : 1,43 Гбайт
Продолжительность : 2 ч. 40 м.
Общий поток : 1271 Кбит/сек
Режиссёр : TmG
Программа кодирования : VirtualDubMod 1.5.10.3 | (build 2550/release)
Библиотека кодирования : VirtualDub build 34753/release
Видео
Идентификатор : 0
Формат : MPEG-4 Visual
Профиль формата : Advanced [email protected]
Параметр BVOP формата : 2
Параметр QPel формата : Нет
Параметр GMC формата : Без точки перехода
Параметр матрицы формата : Default (H.263)
Режим смешивания : Сжатый битовый поток
Идентификатор кодека : XVID
Идентификатор кодека/Подсказка : XviD
Продолжительность : 2 ч. 40 м.
Битрейт : 1070 Кбит/сек
Ширина : 720 пикселей
Высота : 304 пикселя
Соотношение сторон : 2,35:1
Частота кадров : 23,976 кадра/сек
Цветовое пространство : YUV
Субдискретизация насыщенности : 4:2:0
Битовая глубина : 8 бит
Тип развёртки : Прогрессивная
Метод сжатия : С потерями
Бит/(Пиксели*Кадры) : 0.204
Размер потока : 1,20 Гбайт (84%)
Библиотека кодирования : XviD 64
Аудио
Идентификатор : 1
Формат : MPEG Audio
Версия формата : Version 1
Профиль формата : Layer 3
Идентификатор кодека : 55
Идентификатор кодека/Подсказка : MP3
Продолжительность : 2 ч. 40 м.
Вид битрейта : Постоянный
Битрейт : 192 Кбит/сек
Каналы : 2 канала
Частота : 44,1 КГц
Метод сжатия : С потерями
Размер потока : 221 Мбайт (15%)
Выравнивание : Разделение по промежуткам
Продолжительность промежутка : 42 мс. (1,00 видеокадр)
Время предзагрузки промежутка : 500 мс.
Скриншоты:



Время раздачи: 24/7 (до 10 скачавших)
Яндекс.Метрика
Рейтинг@Mail.ru