Привычка жениться / The Marrying Man (1991) BDRip [H.264]

 

Создавать темы 17-Фев-2014 11:14

-Привычка жениться / The Marrying Man (1991) BDRip [H.264]
Год выпуска: 1991
Жанр: Мелодрама, Комедия, Музыкальный
Производство: США
Описание фильма: У миллионера Чарльза Пирла есть вкус, стиль, обаяние — все, что нужно покорителю женских сердец. Вскоре дочь самого влиятельного человека в Голливуде выйдет за него замуж. Однако по дороге к алтарю незадачливый жених встречает девушку своей мечты.
Певица Вики Андерсон красива, соблазнительна и согласна стать его женой. Чарльз снова возвращается под венец, не подозревая, что вскоре станет здесь частым гостем…
Режиссер: Джерри Рис
Актеры: Ким Бейсингер, Алек Болдуин, Роберт Лоджа, Элизабет Шу, Арманд Ассанте, Пол Райзер, Фишер Стивенс, Питер Добсон, Стив Хитнер, Джереми Робертс, Биг Джон Стадд, Тони Лонго...
Продолжительность: 01:56:23
Качество видео: BDRip [H.264]
Перевод: Многоголосый закадровый (профессиональный)
Язык субтитров: Английский
Вид субтитров: Вшитые (отключаемые)

Дата мировой премьеры: 5 апреля 1991
Видеокодек: MPEG-4 AVC/H.264
Битрейт видео: ~1947 kbps
Размер кадра: 1024x576
Аудио #1: 48 kHz, AC3 Dolby Digital, 6 ch, ~384.00 kbps | Русский (многоголосый)
Аудио #2: 48 kHz, AC3 Dolby Digital, 2 ch, ~192.00 kbps | Английский (оригинал)
&

MediaInfo

Общее
Уникальный идентификатор : 170590706518404018282218313584322866835 (0x80569332A99334F6834D88CC6A9CEE93)
Полное имя : D:\Torrent\The Marrying Man.1991.BDRip-AVC.mkv
Формат : Matroska
Версия формата : Version 2
Размер файла : 2,05 Гбайт
Продолжительность : 1 ч. 56 м.
Общий поток : 2524 Кбит/сек
Название фильма : Привычка жениться / The Marrying Man (1991) BDRip-AVC rip by Rulya74
Дата кодирования : UTC 2014-02-15 16:57:59
Программа кодирования : mkvmerge v4.9.1 ('Ich will') зібрано Jul 11 2011 23:53:15
Библиотека кодирования : libebml v1.2.1 + libmatroska v1.1.1
Видео
Идентификатор : 1
Формат : AVC
Формат/Информация : Advanced Video Codec
Профиль формата : [url=mailto:[email protected]][email protected][/url]
Параметр CABAC формата : Да
Параметр ReFrames формата : 8 кадров
Идентификатор кодека : V_MPEG4/ISO/AVC
Продолжительность : 1 ч. 56 м.
Битрейт : 1947 Кбит/сек
Ширина : 1024 пикселя
Высота : 576 пикселей
Соотношение сторон : 16:9
Режим частоты кадров : Постоянный
Частота кадров : 23,976 кадра/сек
Цветовое пространство : YUV
Субдискретизация насыщенности : 4:2:0
Битовая глубина : 8 бит
Тип развёртки : Прогрессивная
Бит/(Пиксели*Кадры) : 0.138
Размер потока : 1,54 Гбайт (75%)
Библиотека кодирования : x264 core 138 r2358 9e941d1
Настройки программы : cabac=1 / ref=8 / deblock=1:-1:-1 / analyse=0x3:0x112 / me=umh / subme=11 / psy=1 / psy_rd=1.00:0.00 / mixed_ref=1 / me_range=48 / chroma_me=1 / trellis=2 / 8x8dct=1 / cqm=0 / deadzone=21,11 / fast_pskip=0 / chroma_qp_offset=-2 / threads=4 / lookahead_threads=1 / sliced_threads=0 / nr=0 / decimate=1 / interlaced=0 / bluray_compat=0 / constrained_intra=0 / bframes=4 / b_pyramid=2 / b_adapt=1 / b_bias=0 / direct=3 / weightb=1 / open_gop=0 / weightp=2 / keyint=240 / keyint_min=23 / scenecut=40 / intra_refresh=0 / rc_lookahead=40 / rc=2pass / mbtree=1 / bitrate=1947 / ratetol=1.0 / qcomp=0.60 / qpmin=0 / qpmax=69 / qpstep=4 / cplxblur=20.0 / qblur=0.5 / vbv_maxrate=62500 / vbv_bufsize=78125 / nal_hrd=none / ip_ratio=1.40 / aq=1:1.00
Default : Да
Forced : Нет
Аудио #1
Идентификатор : 2
Формат : AC-3
Формат/Информация : Audio Coding 3
Расширение режима : CM (complete main)
Параметр Endianness формата : Big
Идентификатор кодека : A_AC3
Продолжительность : 1 ч. 56 м.
Вид битрейта : Постоянный
Битрейт : 384 Кбит/сек
Каналы : 6 каналов
Расположение каналов : Front: L C R, Side: L R, LFE
Частота : 48,0 КГц
Битовая глубина : 16 бит
Метод сжатия : С потерями
Размер потока : 320 Мбайт (15%)
Заголовок : Профессиональный (многоголосый закадровый)
Язык : Russian
Default : Да
Forced : Нет
Аудио #2
Идентификатор : 3
Формат : AC-3
Формат/Информация : Audio Coding 3
Расширение режима : CM (complete main)
Параметр Endianness формата : Big
Идентификатор кодека : A_AC3
Продолжительность : 1 ч. 56 м.
Вид битрейта : Постоянный
Битрейт : 192 Кбит/сек
Каналы : 2 канала
Расположение каналов : Front: L R
Частота : 48,0 КГц
Битовая глубина : 16 бит
Метод сжатия : С потерями
Размер потока : 160 Мбайт (8%)
Заголовок : Оригинал
Язык : English
Default : Нет
Forced : Нет
Текст
Идентификатор : 4
Формат : UTF-8
Идентификатор кодека : S_TEXT/UTF8
Идентификатор кодека/Информация : UTF-8 Plain Text
Язык : English
Default : Да
Forced : Нет
Скриншоты:
-Время раздачи: с 9:00 до 23:00
Яндекс.Метрика
Рейтинг@Mail.ru