Медсестра / Nurse 3-D (Дуглас Арниокоски / Douglas Aarniokoski) [2013 г., триллер, WEB-DLRip] VO + Original (Eng)

 

Создавать темы 17-Фев-2014 11:01

--Медсестра / Nurse 3-D--«Your pain is her pleasure»-- Производство: США, Lions Gate Entertainment, Lionsgate
Год выпуска: 2013 г.
Жанр: триллер
Продолжительность: 01:23:54--Мировая премьера: 28 сентября 2013
Премьера (РФ): 23 октября 2014, «Каскад»--Перевод: Любительский (одноголосый закадровый)
Оригинальный аудиопоток: английский--Режиссер: Дуглас Арниокоски / Douglas Aarniokoski--В ролях: Пас де ла Уэрта, Катрина Боуден, Корбин Блю, Джадд Нельсон, Борис Коджо, Адам Хершман, Найси Нэш, Кэтлин Тёрнер, Майкл Эклунд, Мелани Скорфано--Описание: Днём Эбби Рассел является примерной медсестрой, которой люди доверяют свою жизнь. А ночью она использует собственную сексуальность, соблазняя и обманывая людей, чтобы затем убить их с особой жестокостью… Младшая медсестра начинает подозревать Эбби в преступлениях и пытается вывести негодяйку на чистую воду.-- --Качество видео: HDRip
Контейнер: AVI
Видео кодек: XviD
Аудио кодек: AC3
Видео: 720x304 (2.37:1), 23.976 fps, XviD build 73 ~1648 kbps avg, 0.31 bit/pixel
Аудио 1: 48 kHz, AC3 Dolby Digital, 3/2 (L,C,R,l,r) + LFE ch, ~384 kbps RUS
Аудио 2: 48 kHz, AC3 Dolby Digital, 3/2 (L,C,R,l,r) + LFE ch, ~320 kbps ENG
Cубтитры: Отсутствуют

Media Info

Общее
Полное имя : H:\Torrent2\Medsestra.L1.2013.WEB-DLRip_[pirat.ca].avi
Формат : AVI
Формат/Информация : Audio Video Interleave
Размер файла : 1,39 Гбайт
Продолжительность : 1 ч. 23 м.
Общий поток : 2368 Кбит/сек
Программа кодирования : VirtualDubMod 1.5.10.2 (build 2542/release)
Библиотека кодирования : VirtualDubMod build 2542/release
Видео
Идентификатор : 0
Формат : MPEG-4 Visual
Профиль формата : Advanced [email protected]
Параметр BVOP формата : 1
Параметр QPel формата : Нет
Параметр GMC формата : Без точки перехода
Параметр матрицы формата : Default (H.263)
Идентификатор кодека : XVID
Идентификатор кодека/Подсказка : XviD
Продолжительность : 1 ч. 23 м.
Битрейт : 1650 Кбит/сек
Ширина : 720 пикселей
Высота : 304 пикселя
Соотношение сторон : 2,35:1
Частота кадров : 23,976 кадра/сек
Цветовое пространство : YUV
Субдискретизация насыщенности : 4:2:0
Битовая глубина : 8 бит
Тип развёртки : Прогрессивная
Метод сжатия : С потерями
Бит/(Пиксели*Кадры) : 0.314
Размер потока : 990 Мбайт (70%)
Библиотека кодирования : XviD 73
Аудио #1
Идентификатор : 1
Формат : AC-3
Формат/Информация : Audio Coding 3
Расширение режима : CM (complete main)
Параметр Endianness формата : Big
Идентификатор кодека : 2000
Продолжительность : 1 ч. 23 м.
Вид битрейта : Постоянный
Битрейт : 384 Кбит/сек
Каналы : 6 каналов
Расположение каналов : Front: L C R, Side: L R, LFE
Частота : 48,0 КГц
Битовая глубина : 16 бит
Метод сжатия : С потерями
Задержка видео : 70 мс.
Размер потока : 230 Мбайт (16%)
Выравнивание : Разделение по промежуткам
Продолжительность промежутка : 42 мс. (1,00 видеокадр)
Время предзагрузки промежутка : 500 мс.
Аудио #2
Идентификатор : 2
Формат : AC-3
Формат/Информация : Audio Coding 3
Расширение режима : CM (complete main)
Параметр Endianness формата : Big
Идентификатор кодека : 2000
Продолжительность : 1 ч. 23 м.
Вид битрейта : Постоянный
Битрейт : 320 Кбит/сек
Каналы : 6 каналов
Расположение каналов : Front: L C R, Side: L R, LFE
Частота : 48,0 КГц
Битовая глубина : 16 бит
Метод сжатия : С потерями
Размер потока : 192 Мбайт (14%)
Выравнивание : Разделение по промежуткам
Продолжительность промежутка : 42 мс. (1,00 видеокадр)
Время предзагрузки промежутка : 500 мс.

Скриншоты

Трейлер
Яндекс.Метрика
Рейтинг@Mail.ru