Барабаны долины Махонке / Drums Along the Mohawk (Джон Форд / John Ford) [1939 г., драма, мелодрама, вестерн, военный, BDRip-AVC] MVO + DVO + Original (Eng) [Jolly Roger]

 

Создавать темы 13-Фев-2014 16:23

--Барабаны долины Махонке / Drums Along the Mohawk--«Red-Blooded DRAMA !»-- Производство: США
Год выпуска: 1939 г.
Жанр: драма, мелодрама, вестерн, военный
Продолжительность: 01:44:02--Мировая премьера: 3 ноября 1939
Релиз на DVD: 16 декабря 2008, «Мьюзик-Трейд»--Перевод 1: Профессиональный (Многоголосый закадровый), "Светла"
Перевод 2: Профессиональный (Двухголосый закадровый), РЕН ТВ
Оригинальный аудиопоток: английский--Режиссер: Джон Форд / John Ford--В ролях: Клодетт Колбер, Генри Фонда, Эдна Мэй Оливер, Эдди Коллинз, Джон Кэрредин, Доррис Баудон, Джесси Ральф, Артур Шилдс, Роберт Лоури, Роджер Имхоф--Описание: Время войны за независимость между Англией и американскими колониями. Флаг Соединенных Штатов был усыпан всего лишь 13-ю звездочками. Молодожены Джил и Лана отправляются в приграничный район Долины Махонке перед самым началом революции и войны.
Переход от обеспеченной, привилегированной жизни к приграничной потребовал от них недюжинной силы и твердости характера. Спокойная жизнь только-только стала налаживаться, когда в окрестностях небольшого укрепленного форта, стоявшего увыхода из Долины, объявился отряд индейцев, которым руководил жестокий командир-англичанин. Краснокожие грозились уничтожить все и всех вокруг, но обитатели форта стойко выдерживали осаду.--Качество видео: BDRip-AVC
Контейнер: MKV
Видео кодек: H.264
Аудио кодек: AC3
Видео: AVC at 1919 Кбит/сек, 976x712 at 23,976 fps
Аудио 1: 48 kHz, AC3, 1 ch, ~448 kbps "Светла"
Аудио 2: 48 kHz, AC3, 2/0 (L,R) ch, ~192.00 kbps avg РЕН ТВ
Аудио 3: 48 kHz, AC3, 1 ch, ~448 kbps ENG
Cубтитры: отсутствуют

MediaInfo | x264

x264

x264 [info]: using SAR=1/1
x264 [info]: using cpu capabilities: MMX2 SSE2Fast SSSE3 SSE4.2 AVX
x264 [info]: profile High, level 4.1
x264 [info]: frame I:934 Avg QP:19.00 size:124081 PSNR Mean Y:44.75 U:47.79 V:48.67 Avg:45.61 Global:45.05
x264 [info]: frame P:30288 Avg QP:22.48 size: 27969 PSNR Mean Y:42.10 U:46.22 V:46.90 Avg:43.13 Global:42.63
x264 [info]: frame B:118437 Avg QP:26.96 size: 4512 PSNR Mean Y:41.19 U:46.04 V:46.81 Avg:42.32 Global:41.73
x264 [info]: consecutive B-frames: 1.2% 1.4% 5.0% 19.2% 18.1% 43.9% 7.3% 3.8%
x264 [info]: mb I I16..4: 8.3% 67.7% 24.0%
x264 [info]: mb P I16..4: 0.5% 5.8% 1.2% P16..4: 66.6% 9.6% 10.0% 0.6% 0.2% skip: 5.6%
x264 [info]: mb B I16..4: 0.0% 0.5% 0.1% B16..8: 38.2% 4.3% 1.3% direct: 2.5% skip:53.0% L0:43.0% L1:48.9% BI: 8.1%
x264 [info]: 8x8 transform intra:76.0% inter:69.3%
x264 [info]: direct mvs spatial:98.3% temporal:1.7%
x264 [info]: coded y,uvDC,uvAC intra: 88.6% 78.9% 48.1% inter: 15.8% 13.2% 1.3%
x264 [info]: i16 v,h,dc,p: 38% 14% 17% 31%
x264 [info]: i8 v,h,dc,ddl,ddr,vr,hd,vl,hu: 13% 7% 4% 10% 15% 15% 13% 12% 12%
x264 [info]: i4 v,h,dc,ddl,ddr,vr,hd,vl,hu: 11% 6% 3% 9% 15% 16% 14% 13% 13%
x264 [info]: i8c dc,h,v,p: 38% 21% 21% 19%
x264 [info]: Weighted P-Frames: Y:14.3% UV:5.7%
x264 [info]: ref P L0: 42.1% 11.2% 21.9% 6.7% 6.9% 4.5% 5.7% 0.9% 0.0%
x264 [info]: ref B L0: 77.7% 12.7% 5.0% 2.6% 1.3% 0.7%
x264 [info]: ref B L1: 93.0% 7.0%
x264 [info]: SSIM Mean Y:0.9682677 (14.985db)
x264 [info]: PSNR Mean Y:41.398 U:46.085 V:46.837 Avg:42.504 Global:41.909 kb/s:1919.11
x264 [total]: encoded 149659 frames, 6.29 fps, 1919.11 kb/s
Общее
Уникальный идентификатор : 231519405601901732766678148976465590153 (0xAE2D03FE11CDF136BC059FDFAABEB789)
Полное имя : D:\Drums.Along.the.Mohawk.1939.BDRip-AVC.2.18Gb_JRG.mkv
Формат : Matroska
Версия формата : Version 4 / Version 2
Размер файла : 2,19 Гбайт
Продолжительность : 1 ч. 44 м.
Общий поток : 3009 Кбит/сек
Название фильма : The Jolly Roger Release Group by http://pirat.ca
Дата кодирования : UTC 2014-02-13 13:24:34
Программа кодирования : mkvmerge v6.6.0 ('The Edge Of The In Between') built on Dec 1 2013 17:55:00
Библиотека кодирования : libebml v1.3.0 + libmatroska v1.4.1
Видео
Идентификатор : 1
Формат : AVC
Формат/Информация : Advanced Video Codec
Профиль формата : [email protected]
Параметр CABAC формата : Да
Параметр ReFrames формата : 7 кадров
Идентификатор кодека : V_MPEG4/ISO/AVC
Продолжительность : 1 ч. 44 м.
Битрейт : 1919 Кбит/сек
Ширина : 976 пикселей
Высота : 712 пикселей
Соотношение сторон : 1,371
Режим частоты кадров : Постоянный
Частота кадров : 23,976 кадра/сек
Цветовое пространство : YUV
Субдискретизация насыщенности : 4:2:0
Битовая глубина : 8 бит
Тип развёртки : Прогрессивная
Бит/(Пиксели*Кадры) : 0.115
Размер потока : 1,35 Гбайт (62%)
Библиотека кодирования : x264 core 130 r2273 b3065e6
Настройки программы : cabac=1 / ref=7 / deblock=1:-1:-1 / analyse=0x3:0x133 / me=umh / subme=10 / psy=1 / psy_rd=1.00:0.15 / mixed_ref=0 / me_range=24 / chroma_me=1 / trellis=2 / 8x8dct=1 / cqm=0 / deadzone=21,11 / fast_pskip=0 / chroma_qp_offset=-3 / threads=6 / lookahead_threads=1 / sliced_threads=0 / nr=0 / decimate=1 / interlaced=0 / bluray_compat=0 / constrained_intra=0 / bframes=7 / b_pyramid=2 / b_adapt=2 / b_bias=0 / direct=3 / weightb=1 / open_gop=0 / weightp=2 / keyint=250 / keyint_min=23 / scenecut=40 / intra_refresh=0 / rc_lookahead=50 / rc=2pass / mbtree=1 / bitrate=1919 / ratetol=1.0 / qcomp=0.60 / qpmin=0 / qpmax=69 / qpstep=4 / cplxblur=20.0 / qblur=0.5 / ip_ratio=1.40 / aq=1:1.00
Язык : English
Default : Да
Forced : Нет
Аудио #1
Идентификатор : 2
Формат : AC-3
Формат/Информация : Audio Coding 3
Расширение режима : CM (complete main)
Параметр Endianness формата : Big
Идентификатор кодека : A_AC3
Продолжительность : 1 ч. 44 м.
Вид битрейта : Постоянный
Битрейт : 448 Кбит/сек
Каналы : 1 канал
Расположение каналов : Front: C
Частота : 48,0 КГц
Битовая глубина : 16 бит
Метод сжатия : С потерями
Размер потока : 333 Мбайт (15%)
Заголовок : Многоголосый закадровый, "Светла"
Язык : Russian
Default : Да
Forced : Нет
Аудио #2
Идентификатор : 3
Формат : AC-3
Формат/Информация : Audio Coding 3
Расширение режима : CM (complete main)
Параметр Endianness формата : Big
Идентификатор кодека : A_AC3
Продолжительность : 1 ч. 44 м.
Вид битрейта : Постоянный
Битрейт : 192 Кбит/сек
Каналы : 2 канала
Расположение каналов : Front: L R
Частота : 48,0 КГц
Битовая глубина : 16 бит
Метод сжатия : С потерями
Размер потока : 143 Мбайт (6%)
Заголовок : Двухголосый закадровый, РЕН ТВ
Язык : Russian
Default : Нет
Forced : Нет
Аудио #3
Идентификатор : 4
Формат : AC-3
Формат/Информация : Audio Coding 3
Расширение режима : CM (complete main)
Параметр Endianness формата : Big
Идентификатор кодека : A_AC3
Продолжительность : 1 ч. 44 м.
Вид битрейта : Постоянный
Битрейт : 448 Кбит/сек
Каналы : 1 канал
Расположение каналов : Front: C
Частота : 48,0 КГц
Битовая глубина : 16 бит
Метод сжатия : С потерями
Размер потока : 333 Мбайт (15%)
Язык : English
Default : Нет
Forced : Нет

Скриншоты

Награды

Оскар, 1940 год
Номинации (2):
Лучшая женская роль второго плана (Эдна Мэй Оливер)
Лучшая работа оператора (цветные фильмы)
Яндекс.Метрика
Рейтинг@Mail.ru