Васаби / Wasabi (2001) BDRip [H.264]

 

Создавать темы 13-Фев-2014 04:33

-Васаби / Wasabi (2001) BDRip [H.264] -«For those who take their action raw»- Год выпуска: 2001
Жанр: Боевик, Триллер, Драма, Комедия, Криминал
Производство: Франция, Япония / Canal+ [fr], Destiny, Europa Corp., Samitose Productions, TF1 Films Production, Victor Company of Japan Ltd. (JVC)
Описание фильма:
Юбер Фиорентини — французский полицейский, исполняя последнюю волю когда-то им любимой японской девушки, вынужден отправиться в далекую Японию, где ему приходится встретиться со старым другом и дочерью, о существовании которой он даже не подозревал.
А так же получить наследство в 200 млн. долларов, и познакомиться с японской якудзой, охотящейся за заманчивой суммой…
Режиссер: Жерар Кравчик
Сценарий: Люк Бессон
Продюсер: Люк Бессон, Дидье Хорау, Сохей Котаки
Актеры: Жан Рено, Риоко Хиросуэ, Мишель Мюллер, Ёси Оида, Кароль Буке, Кристиан Синниже, Александр Брик, Жан-Марк Монтальто, Вероник Бальм, Фабио Дзенони
Продолжительность: 01:33:53
Качество видео: BDRip
Перевод: Дублированный, двуголосый закадровый (Гланц и Королева)

Дата мировой премьеры: 31 октября 2001
Дата российской премьеры: 22 августа 2002
Дата выхода DVD релиза: 21 ноября 2002, «Союз-Видео»
Видеокодек: MPEG-4 AVC/H.264
Битрейт видео: ~2950 Кбит/сек
Размер кадра: 1024x440
Аудио 1: Русский, AC3 2.0, 192 Кбит/сек, 48 kHz (Дублированный, МОСФИЛЬМ-мастер, 2002)
Аудио 2: Русский, AC3 2.0, 192 Кбит/сек, 48 kHz (Двухголосый закадровый, Пётр Гланц и Инна Королёва)

Знаете ли вы, что...

Васаби — специя, используемая преимущественно в Японии, с очень острым и жгучим вкусом, напоминающим вкус горчицы.
В фильме «Пришельцы» Юбер — это имя пропавшего без вести кузена графини де Монмерай, за которого выдают прибывшего сквозь время рыцаря Годфруа в исполнении Жана Рено.
Актриса Риоко Хиросуэ не зналa французского, все реплики ей пришлось заучивать на слух.
Во время игры в гольф шеф полиции спрашивает у Юбера: «У вас нет корней?» — это явная отсылка к фильму «Леон».

Реценция с кинопоиска от Алистер:

Острый как приправа
Это один из лучших фильмов, в создании которого участвовал Люк Бессон. Данную картину снял Жерар Кравчик, который к тому же отлично продолжил франшизу «Такси». Это фильм о полицейском Юбере Фиорентини, пользующимся крайними и жёсткими методами в свой работе. Однажды он узнаёт, что его бывшая возлюбленная умерла и оставила ему некое наследство. Прилетев в Японию, Юбер узнаёт, что у него есть дочь и пытается разгадать все тайны, которыми окутано прошлое её матери.
В фильме замечательный неподражаемый французский юмор, не пошлый и не тупой, над которым действительно смеёшься. Зачастую он проявляется в создающихся комичных ситуациях. Также режиссёр и сценарист замечательно совместили культуру и жизненные обычаи двух стран — Франции и Японии, и они гармонируют как одно целое. Сцены экшна поставлены мастерки. Хочется отметить отличную работу оператора. Сюжет интересный, динамичный, не провисающий.
А главную изюминку фильму придают его персонажи. Юбер Фиорентини, которого очень хорошо сыграл Жан Рено, грубый и жёсткий с виду человек, являющийся в душе романтиком и заботливым отцом. Он просто как приправа васаби, которая так ему понравилась — острый, которого не каждый сможет полюбить и понять. Его друг Момо — ходячий анекдот, сыплющий искромётными шутками и попадающий в забавные ситуации. Это лучшая роль Мишеля Мюллера. И уши у него интересные на вид. Ну и дочь Юми, сыгранная Риоко Хиросуэ, такая дерзкая и ранимая молодая девушка. Йоши Оида запомнился в своей роли мафиози.
Это фильм, который хочется пересматривать. И каждый раз смеяться над его шутками и любоваться сюжетом и персонажами и вдумываться в замечательные диалоги.
10 из 10

MediaInfo:

General
Unique ID : 176864050200826270769398151059746290349 (0x850EC6EBE130E97997CD17715D437AAD)
Complete name : F:\Downloads\Васаби.mkv
Format : Matroska
Format version : Version 4 / Version 2
File size : 2.18 GiB
Duration : 1h 33mn
Overall bit rate : 3 334 Kbps
Encoded date : UTC 2014-02-10 11:32:01
Writing application : mkvmerge v6.4.1 ('Omega Point') built on Sep 16 2013 22:05:10
Writing library : libebml v1.3.0 + libmatroska v1.4.1
Video
ID : 1
Format : AVC
Format/Info : Advanced Video Codec
Format profile : [url=mailto:[email protected]][email protected][/url]
Format settings, CABAC : Yes
Format settings, ReFrames : 8 frames
Codec ID : V_MPEG4/ISO/AVC
Duration : 1h 33mn
Bit rate : 2 950 Kbps
Width : 1 024 pixels
Height : 440 pixels
Display aspect ratio : 2.35:1
Frame rate mode : Constant
Frame rate : 24.000 fps
Color space : YUV
Chroma subsampling : 4:2:0
Bit depth : 8 bits
Scan type : Progressive
Bits/(Pixel*Frame) : 0.273
Stream size : 1.89 GiB (86%)
Title : Wasabi
Writing library : x264 core 130 r2273 b3065e6
Encoding settings : cabac=1 / ref=8 / deblock=1:0:0 / analyse=0x3:0x133 / me=umh / subme=9 / psy=1 / psy_rd=1.00:0.00 / mixed_ref=1 / me_range=32 / chroma_me=1 / trellis=2 / 8x8dct=1 / cqm=0 / deadzone=21,11 / fast_pskip=0 / chroma_qp_offset=-2 / threads=6 / lookahead_threads=1 / sliced_threads=0 / nr=0 / decimate=1 / interlaced=0 / bluray_compat=0 / constrained_intra=0 / bframes=3 / b_pyramid=2 / b_adapt=2 / b_bias=0 / direct=3 / weightb=1 / open_gop=0 / weightp=2 / keyint=250 / keyint_min=25 / scenecut=40 / intra_refresh=0 / rc_lookahead=60 / rc=2pass / mbtree=1 / bitrate=2950 / ratetol=1.0 / qcomp=0.60 / qpmin=10 / qpmax=51 / qpstep=4 / cplxblur=20.0 / qblur=0.5 / ip_ratio=1.40 / aq=1:1.00
Language : French
Default : Yes
Forced : No
Audio #1
ID : 2
Format : AC-3
Format/Info : Audio Coding 3
Mode extension : CM (complete main)
Format settings, Endianness : Big
Codec ID : A_AC3
Duration : 1h 33mn
Bit rate mode : Constant
Bit rate : 192 Kbps
Channel(s) : 2 channels
Channel positions : Front: L R
Sampling rate : 48.0 KHz
Bit depth : 16 bits
Compression mode : Lossy
Stream size : 129 MiB (6%)
Title : Дубляж, МОСФИЛЬМ-мастер
Language : Russian
Default : Yes
Forced : No
Audio #2
ID : 3
Format : AC-3
Format/Info : Audio Coding 3
Mode extension : CM (complete main)
Format settings, Endianness : Big
Codec ID : A_AC3
Duration : 1h 33mn
Bit rate mode : Constant
Bit rate : 192 Kbps
Channel(s) : 2 channels
Channel positions : Front: L R
Sampling rate : 48.0 KHz
Bit depth : 16 bits
Compression mode : Lossy
Stream size : 129 MiB (6%)
Title : Двухголосый, закадровый, Пётр Гланц и Инна Королёва
Language : Russian
Default : No
Forced : No
Скриншоты:-Время раздачи: с 13:00 до 01:00 по Москве (выходные круглосуточно), до 10 скачавших
Яндекс.Метрика
Рейтинг@Mail.ru