[ Сегодня на трекере фрилич! Идет свободное скачивание без начисления Download ]

Форсаж 5 / Fast Five [Extended Cut] (Джастин Лин / Justin Lin) [2011 г., боевик, BDRip] AVO (А.Гаврилов, Л.Володарский)

 

Создавать темы 11-Фев-2014 21:56

Форсаж 5 / Fast Five [Extended Cut] Год выпуска: 2011
Производство: США
Жанр: боевик
Продолжительность: 02:11:34
Перевод: Авторский (одноголосый, закадровый) А.Гаврилов
Перевод 2: Авторский (одноголосый, закадровый) Л.Володарский
Субтитры: отсутствуют
Режиссер: Джастин Лин / Justin Lin
В ролях: Вин Дизель, Пол Уокер, Дуэйн Джонсон, Джордана Брюстер, Тайриз Гибсон, Лудакрис, Мэтт Шульце, Санг Кенг, Гал Гадот, Тего Калдерон, Дон Омар
Описание: Бывший полицейский Брайан О`Коннер вместе с бывалым лихачом Домиником Торетто совсем немного увлеклись жизнью вне закона. После того, как Брайан и Миа Торетто освободили Доминика, они не рискуют долго задерживаться на одном месте, так как являются желанной целью порядком недовольных копов.
Сэмпл , КиноПоиск
Качество видео: BDRip
Контейнер: AVI
Видео кодек: XviD
Аудио кодек: AC3
Видео: 720x304 (2.37:1), 23.976 fps, XviD build 64 ~1982 kbps avg, 0.38 bit/pixel
Аудио : 48 kHz, AC3 Dolby Digital, 3/2 (L,C,R,l,r) + LFE ch, ~448 kbps - А.Гаврилов
Аудио #2: 48 kHz, AC3 Dolby Digital, 3/2 (L,C,R,l,r) + LFE ch, ~448 kbps - Л.Володарский

Доп. информация

За дорогу Гаврилова спасибо Skazhutin (hdclub).
Цитата
Дорожки с переводом А. Гаврилова доступны благодаря пользователям форума e180: Nadoelo, Guyver, dr_akula, foxlight, Hattori Hanzo, Марлон, Kastro, ANISKIN50, Iceman, Bilko, SavineX78, MyxAmoP, uchitel538, maximus10-99, karantin66, фёдор александрович, Диммон, Loki1982, masta, Tio, mitabrev, vik19662007, Daniel Rock, jorn2, Wolf_Larsen, nimph, LAVR, ZeDOK, aladdin911, Savely, kinobbk, GaryH, El Capitain, 2vova2, bla_, STONECOLD, Серый, Denis2251, carnivale.
За перевод Володарского большое спасибо пользователям форума hdtracker.org: Xerman13, Hattori Hanzo, dunhill200, Chistobaev, lexal, ZeRoNe, Denis2251, Role, Диммон, Wolf_Larsen, Gross1978, -Джосс-, Denis1980, denis_mgn_1987, SavineX, Guyver, Comandante

Media Info

General
Complete name : D:\Films 2\Fast Five.2011 [Extended Cut] BDRip.avi
Format : AVI
Format/Info : Audio Video Interleave
Format profile : OpenDML
File size : 2.24 GiB
Duration : 2h 11mn
Overall bit rate : 2 437 Kbps
Writing application : VirtualDubMod 1.5.10.3 (build 2550/release)
Video
ID : 0
Format : MPEG-4 Visual
Format profile : Advanced [email protected]
Format settings, BVOP : 1
Format settings, QPel : No
Format settings, GMC : No warppoints
Format settings, Matrix : Custom
Codec ID : XVID
Codec ID/Hint : XviD
Duration : 2h 11mn
Bit rate : 1 977 Kbps
Width : 720 pixels
Height : 304 pixels
Display aspect ratio : 2.35:1
Frame rate : 23.976 fps
Color space : YUV
Chroma subsampling : 4:2:0
Bit depth : 8 bits
Scan type : Progressive
Compression mode : Lossy
Bits/(Pixel*Frame) : 0.377
Stream size : 1.82 GiB (81%)
Writing library : XviD 64
Audio
ID : 1
Format : AC-3
Format/Info : Audio Coding 3
Mode extension : CM (complete main)
Format settings, Endianness : Big
Codec ID : 2000
Duration : 2h 11mn
Bit rate mode : Constant
Bit rate : 448 Kbps
Channel count : 6 channels
Channel positions : Front: L C R, Side: L R, LFE
Sampling rate : 48.0 KHz
Bit depth : 16 bits
Compression mode : Lossy
Stream size : 422 MiB (18%)
Alignment : Split accross interleaves
Interleave, duration : 42 ms (1.00 video frame)
Interleave, preload duration : 500 ms

Скриншоты

Яндекс.Метрика
Рейтинг@Mail.ru