Хрустальное небо вчерашнего дня / Zuo ri qing kong (Си Чао) [2018, мультфильм, мелодрама, драма, WEB-DL 1080p | iTunes]

 

Post 13-May-2019 17:37

Хрустальное небо вчерашнего дня / Zuo ri qing kong
Информация о фильме- Название: Хрустальное небо вчерашнего дня
Оригинальное название: Zuo ri qing kong
Год выпуска: 2018
Жанр: Мультфильм, мелодрама, драма
Режиссер: Си Чао
В ролях: Су Шанцин, Дуань Исюань, Ван Ибо, Ма Баньма-О фильме: Старшеклассник Ван живет в маленьком прибрежном городке. О будущем не думает, на учебу забивает, любит читать комиксы, рисовать и играть на приставке. Неожиданно его назначают старостой класса вместе с умницей и красавицей Юи. Ван влюбляется в девушку и решает взяться за ум, чтобы завоевать её сердце.--Выпущено: Китай, Horgos Coloroom Pictures
Продолжительность: 01:22:14
Перевод: Дублированный | iTunes-Файл-Качество: WEB-DL 1080p
Контейнер: MKV
Видео: MEG-4 AVC, 5013 Кбит/с, 1920x1040
Аудио: Русский: AC3, 6 ch, 384 Кбит/с
Субтитры: Нет-Релиз от: -

Скриншоты

--
-

MediaInfo

-Общее
Уникальный идентификатор : 192389369105085149449586648773456403388 (0x90BCD83DDFCADF27BAE6FBF08C4D9BBC)
Полное имя : Zuo.ri.qing.kong.2019.WEB-DL.1080p.ELEKTRI4KA.UNIONGANG.mkv
Формат : Matroska
Версия формата : Version 2
Размер файла : 3,16 Гбайт
Продолжительность : 1 ч. 22 м.
Общий поток : 5507 Кбит/сек
Название фильма : Zuo.ri.qing.kong.2019.ELEKTRI4KA.UNIONGANG
Дата кодирования : UTC 2019-05-10 18:03:08
Программа кодирования : mkvmerge v7.8.0 ('River Man') 32bit built on Apr 3 2015 12:11:22
Библиотека кодирования : libebml v1.3.1 + libmatroska v1.4.2
Видео
Идентификатор : 1
Формат : AVC
Формат/Информация : Advanced Video Codec
Профиль формата : [email protected]
Параметр CABAC формата : Да
Параметр RefFrames формата : 4 кадра
Идентификатор кодека : V_MPEG4/ISO/AVC
Продолжительность : 1 ч. 22 м.
Битрейт : 5013 Кбит/сек
Ширина : 1920 пикселей
Высота : 1040 пикселей
Соотношение сторон : 1,85:1
Режим частоты кадров : Постоянный
Частота кадров : 24,000 кадра/сек
Цветовое пространство : YUV
Субдискретизация насыщенности : 4:2:0
Битовая глубина : 8 бит
Тип развёртки : Прогрессивная
Бит/(Пиксели*Кадры) : 0.105
Размер потока : 2,88 Гбайт (91%)
Язык : English
Default : Да
Forced : Нет
Цветовой диапазон : Limited
Основные цвета : BT.709
Характеристики трансфера : BT.709
Коэффициенты матрицы : BT.709
Аудио
Идентификатор : 2
Формат : AC-3
Формат/Информация : Audio Coding 3
Параметр Endianness формата : Big
Идентификатор кодека : A_AC3
Продолжительность : 1 ч. 22 м.
Вид битрейта : Постоянный
Битрейт : 384 Кбит/сек
Каналы : 6 каналов
Расположение каналов : Front: L C R, Side: L R, LFE
Частота : 48,0 КГц
Частота кадров : 31,250 кадров/сек (1536 SPF)
Битовая глубина : 16 бит
Метод сжатия : С потерями
Размер потока : 226 Мбайт (7%)
Заголовок : iTunes
Язык : Russian
Default : Да
Forced : Нет
Меню
00:00:00.000 : en:Глава 1
00:03:59.125 : en:Глава 2
00:08:50.458 : en:Глава 3
00:16:08.291 : en:Глава 4
00:21:49.124 : en:Глава 5
00:29:58.790 : en:Глава 6
00:35:52.290 : en:Глава 7
00:41:14.081 : en:Глава 8
00:46:46.831 : en:Глава 9
00:54:37.289 : en:Глава 10
00:58:37.080 : en:Глава 11
01:05:20.830 : en:Глава 12
01:10:05.246 : en:Глава 13
01:16:02.037 : en:Глава 14
--
Рейтинг@Mail.ru