Аркадий Северный. Человек, которого не было (2008) TVRip

 

Post 13-May-2019 15:56

Аркадий Северный. Человек, которого не было- Режиссер: Максим Катушкин
Год выпуска: 2008
Жанр: Документальный-Участники: Анатолий Кальварский (композитор), Борис Тайгин (коллекционер, поэт), Евгений Кадников (друг), Александр Розенбамум (народный артист России), Рудольф Фукс (коллекционер, поэт, продюсер), Зинаида Курбатова (журналист, внучка Д.С.Лихачева), Николай Браун (диссидент, поэт, музыкант), Владимир Васильев (музыкант), Владимир Ефимов (коллекционер, музыкант), Александр Фрумин (продюсер, зять А.Северного), Виктор Тюменский (автор-исполнитель), Виктор Смирнов (музыкант), Псой Короленко (филолог, музыкант), Гарик Осипов (музыкант, писатель), Валентина Звездина (вдова А. Северного), Наталья Соколова (Звездина) (дочь), Николай Резанов (Жемчужный)(музыкант), Сергей Соколов (полковник МВД в отставке, фотограф), Виктор Смирнов (музыкант), Галина Львовская.
Первый в России телефильм, посвященный создателю жанра «русский шансон» Аркадию Звездину – Северному.
Этот человек, песни которого разошлись на пословицы и поговорки, ни разу не выступал публично, не записывался на радио,
не показывался по телевизору. Это аноним, бродяга, человек без места прописки и места работы.-Продолжительность: 00:45:54
Перевод: Оригинальный
Видеокодек: DivX 5
Битрейт видео: 1 181 kbps
Размер кадра: 568x444
Качество видео: TVRip
Аудиокодек: MP3
Битрейт аудио: 128 kbp/s

MediaInfo:

General
Complete name               : D:\Torrent\Arkadiy Severniy nnmclub.to.avi
Format                      : AVI
Format/Info                 : Audio Video Interleave
File size                   : 241 MiB
Duration                    : 25 min 40 s
Overall bit rate            : 1 315 kb/s
Video
ID                          : 0
Format                      : MPEG-4 Visual
Format settings             : BVOP1
Format settings, BVOP       : 1
Format settings, QPel       : No
Format settings, GMC        : No warppoints
Format settings, Matrix     : Default (H.263)
Muxing mode                 : Packed bitstream
Codec ID                    : DX50
Codec ID/Hint               : DivX 5
Duration                    : 25 min 40 s
Bit rate                    : 1 181 kb/s
Nominal bit rate            : 11.8 Mb/s
Width                       : 568 pixels
Height                      : 444 pixels
Display aspect ratio        : 1.279
Frame rate                  : 25.000 FPS
Color space                 : YUV
Chroma subsampling          : 4:2:0
Bit depth                   : 8 bits
Scan type                   : Progressive
Compression mode            : Lossy
Bits/(Pixel*Frame)          : 0.187
Stream size                 : 217 MiB (90%)
Writing library             : DivX 5.1.1 (Maupiti) (UTC 2003-11-19)
Audio
ID                          : 1
Format                      : MPEG Audio
Format version              : Version 1
Format profile              : Layer 3
Format settings             : Joint stereo
Codec ID                    : 55
Codec ID/Hint               : MP3
Duration                    : 25 min 40 s
Source duration             : 25 min 40 s
Bit rate mode               : Constant
Bit rate                    : 128 kb/s
Channel(s)                  : 2 channels
Sampling rate               : 44.1 kHz
Compression mode            : Lossy
Stream size                 : 23.5 MiB (10%)
Alignment                   : Split accross interleaves
Interleave, duration        : 200  ms (5.00 video frames)
Writing library             : LAME3.95
Скриншоты:
Рейтинг@Mail.ru