[ Сегодня на трекере фрилич! Идет свободное скачивание без начисления Download ]

Олимпийские игры 2014. Фигурное катание. Командное первенство. Женщины. Произвольная программа (2014.02.09) HDTV [H.264/1080i]

 

Создавать темы 09-Фев-2014 21:38

- Олимпийские игры 2014. Фигурное катание. Командное первенство. Женщины. Произвольная программа (2014.02.09) HDTV [H.264/1080i]- Режиссер / Телекомпания: СПОРТХИТ LIVE
Русское название: Олимпийские игры 2014
Год выпуска: 2014
Жанр: Спорт
Выпущено: Россия, НТВ+ HD
Описание:
XXII Зимние Олимпийские игры. Фигурное катание. Командное первенство. Женщины. Произвольная программа
Ведущие: Т.Тарасова, В.Соловьёв
Продолжительность: 00:50:23
Видеокодек: AVC
Качество видео: HDTV
Битрейт видео: ~15,3 Мбит/сек
Размер кадра: 1920 x 1080
Аудиокодек: MP2, 2.0ch.
Битрейт аудио: 192 kb/s

MediaInfo:

Формат : MPEG-TS
Размер файла : 5,72 Гбайт
Продолжительность : 50 м.
Общий поток : 16,3 Мбит/сек
Видео
Идентификатор : 301 (0x12D)
Идентификатор меню : 1 (0x1)
Формат : AVC
Формат/Информация : Advanced Video Codec
Профиль формата : [url=mailto:[email protected]][email protected][/url]
Параметр CABAC формата : Да
Параметр ReFrames формата : 3 кадра
Идентификатор кодека : 27
Продолжительность : 50 м.
Битрейт : 15,3 Мбит/сек
Ширина : 1920 пикселей
Высота : 1080 пикселей
Соотношение сторон : 16:9
Частота кадров : 25,000 кадров/сек
Стандарт вещания : Component
Цветовое пространство : YUV
Субдискретизация насыщенности : 4:2:0
Битовая глубина : 8 бит
Тип развёртки : Чересстрочная
Порядок развёртки : Верхнее поле первое
Бит/(Пиксели*Кадры) : 0.294
Размер потока : 5,37 Гбайт (94%)
Основные цвета : BT.709-5, BT.1361, IEC 61966-2-4, SMPTE RP177
Характеристики трансфера : BT.709-5, BT.1361
Коэффициенты матрицы : BT.709-5, BT.1361, IEC 61966-2-4 709, SMPTE RP177
Аудио
Идентификатор : 401 (0x191)
Идентификатор меню : 1 (0x1)
Формат : MPEG Audio
Версия формата : Version 1
Профиль формата : Layer 2
Идентификатор кодека : 3
Продолжительность : 50 м.
Вид битрейта : Постоянный
Битрейт : 192 Кбит/сек
Каналы : 2 канала
Частота : 48,0 КГц
Метод сжатия : С потерями
Размер потока : 69,2 Мбайт (1%)
Язык : Russian
Скриншоты:Время раздачи: 24/7. До первых 5 скачавших.
Яндекс.Метрика
Рейтинг@Mail.ru