[ Сегодня на трекере фрилич! Идет свободное скачивание без начисления Download ]

Парклэнд / Parkland (Питер Ландесман / Peter Landesman) [2013 г., триллер, драма, детектив, HDRip] Dub [Лицензия]

 

Создавать темы 08-Фев-2014 16:08

-Парклэнд / Parkland-- Производство: США
Год выпуска: 2013 г.
Жанр: триллер, драма, детектив
Продолжительность: 01:33:39
Перевод: Профессиональный (полное дублирование) [Лицензия]-Режиссер: Питер Ландесман / Peter Landesman-В ролях: Зак Эфрон, Марша Гей Харден, Билли Боб Торнтон, Джеки Уивер, Пол Джаматти, Мэтт Барр, Мэллори Мой, Битси Таллоч, Рон Ливингстон, Джейсон Дуглас-Описание: 1963 год. 22 ноября. Даллас. 11:50. Президентский кортеж движется в центр города. 12:30. Раздаются роковые выстрелы. 13:00. Госпиталь Парклэнд. 35-й президент США скончался.
Что стало поводом к убийству президента? Вопрос, который вот уже полвека держит в напряжении человечество… Последняя версия одного из самых громких и неразгаданных преступлений XX века, убийство Джона Ф. Кеннеди — любимого страной президента, молодого умного политика, гениального любовника, водившего опасные романы — с Мэрлин Монро, и еще сотнями красивейших женщин Америки.- -Качество видео: HDRip
Контейнер: AVI
Видео кодек: XviD
Аудио кодек: AC3
Видео: 720x400, 23.976 fps, 1696 kbps avg, 0.246 bit/pixel
Аудио: 48 kHz, AC3 Dolby Digital, 3/2 (L,C,R,l,r) + LFE ch, ~384 kbps
Cубтитры: отсутствуют-

Media Info

Общее
Полное имя : C:\Users\Ромик\Pictures\Перелив\Парклэнд\Parkland.2013.D.HDRip.1400MB.avi
Формат : AVI
Формат/Информация : Audio Video Interleave
Размер файла : 1,37 Гбайт
Продолжительность : 1 ч. 33 м.
Общий поток : 2089 Кбит/сек
Программа кодирования : VirtualDubMod 1.5.10.2 (build 2540/release)
Библиотека кодирования : VirtualDubMod build 2540/release
Видео
Идентификатор : 0
Формат : MPEG-4 Visual
Профиль формата : Advanced [email protected]
Параметр BVOP формата : 2
Параметр QPel формата : Нет
Параметр GMC формата : Без точки перехода
Параметр матрицы формата : Default (MPEG)
Идентификатор кодека : XVID
Идентификатор кодека/Подсказка : XviD
Продолжительность : 1 ч. 33 м.
Битрейт : 1696 Кбит/сек
Ширина : 720 пикселей
Высота : 400 пикселей
Соотношение сторон : 16:9
Частота кадров : 23,976 кадра/сек
Цветовое пространство : YUV
Субдискретизация насыщенности : 4:2:0
Битовая глубина : 8 бит
Тип развёртки : Прогрессивная
Метод сжатия : С потерями
Бит/(Пиксели*Кадры) : 0.246
Размер потока : 1,11 Гбайт (81%)
Библиотека кодирования : XviD 1.2.1 (UTC 2008-12-04)
Аудио
Идентификатор : 1
Формат : AC-3
Формат/Информация : Audio Coding 3
Расширение режима : CM (complete main)
Параметр Endianness формата : Big
Идентификатор кодека : 2000
Продолжительность : 1 ч. 33 м.
Вид битрейта : Постоянный
Битрейт : 384 Кбит/сек
Каналы : 6 каналов
Расположение каналов : Front: L C R, Side: L R, LFE
Частота : 48,0 КГц
Битовая глубина : 16 бит
Метод сжатия : С потерями
Размер потока : 257 Мбайт (18%)
Выравнивание : Разделение по промежуткам
Продолжительность промежутка : 42 мс. (1,00 видеокадр)
Время предзагрузки промежутка : 500 мс.
-

Скриншоты

-
Яндекс.Метрика
Рейтинг@Mail.ru