Команда мечты / Les seigneurs (Оливье Даан / Olivier Dahan) [2012 г., комедия, спорт, HDRip] Dub [Лицензия]

 

Создавать темы 08-Фев-2014 16:07

-Команда мечты / Les seigneurs-- Производство: Франция
Год выпуска: 2012 г.
Жанр: комедия, спорт
Продолжительность: 01:36:56
Дата выхода DVD: 30 января 2014
Перевод: Профессиональный (полное дублирование) [Лицензия]-Режиссер: Оливье Даан / Olivier Dahan-В ролях: Хосе Гарсия, Омар Си, Жан-Пьер Марьель, Франк Дюбоск, Гад Эльмале, Джои Старр, Рамзи Бедиа, Жан Рено, Сами Амезьян, Клементин Баэрт-Описание: Патрик — в прошлом известный футболист и тренер, а сейчас просто пьяница. Единственная работа, которую он может получить — это тренер любительской футбольной команды на севере Франции. И отказаться нельзя, если у него не будет работы, он лишится права опеки над дочерью. Дела на футбольном поприще у почтальонов, рыбаков и бухгалтеров идут неважно. И тогда Патрику в голову приходит гениальная мысль — пригласить бывших футбольных звезд, уже повесивших бутсы на гвоздь, в команду. Вас ждут веселые приключения и незабываемые футбольные баталии!- -Качество видео: HDRip
Контейнер: AVI
Видео кодек: XviD
Аудио кодек: MP3
Видео: 704x352, 23,976 fps, 937 kbps avg, 0.158 bit/pixel
Аудио: 48 kHz, MPEG Layer 3, 2 ch, ~128.00 kbps avg
Cубтитры: отсутствуют-

Media Info

Общее
Полное имя : C:\Users\Ромик\Pictures\Команда Мечты\Komanda.Mechty.2012.HDRip.745Mb.avi
Формат : AVI
Формат/Информация : Audio Video Interleave
Размер файла : 745 Мбайт
Продолжительность : 1 ч. 36 м.
Общий поток : 1074 Кбит/сек
Программа кодирования : VirtualDubMod 1.5.10.2 (build 2540/release)
Видео
Идентификатор : 0
Формат : MPEG-4 Visual
Профиль формата : Advanced [email protected]
Параметр BVOP формата : 2
Параметр QPel формата : Нет
Параметр GMC формата : Без точки перехода
Параметр матрицы формата : Default (MPEG)
Идентификатор кодека : XVID
Идентификатор кодека/Подсказка : XviD
Продолжительность : 1 ч. 36 м.
Битрейт : 937 Кбит/сек
Ширина : 704 пикселя
Высота : 352 пикселя
Соотношение сторон : 2,000
Частота кадров : 23,976 кадра/сек
Цветовое пространство : YUV
Субдискретизация насыщенности : 4:2:0
Битовая глубина : 8 бит
Тип развёртки : Прогрессивная
Метод сжатия : С потерями
Бит/(Пиксели*Кадры) : 0.158
Размер потока : 649 Мбайт (87%)
Библиотека кодирования : XviD 65
Аудио
Идентификатор : 1
Формат : MPEG Audio
Версия формата : Version 1
Профиль формата : Layer 3
Идентификатор кодека : 55
Идентификатор кодека/Подсказка : MP3
Продолжительность : 1 ч. 36 м.
Вид битрейта : Постоянный
Битрейт : 128 Кбит/сек
Каналы : 2 канала
Частота : 48,0 КГц
Метод сжатия : С потерями
Размер потока : 88,8 Мбайт (12%)
Выравнивание : Соединение по промежуткам
Продолжительность промежутка : 42 мс. (1,00 видеокадр)
Время предзагрузки промежутка : 504 мс.
Библиотека кодирования : LAMELAME_MAJOR_VERSI
-

Скриншоты

-
Яндекс.Метрика
Рейтинг@Mail.ru